Поиск

(free jazz, Ogun) [cd] Chris McGregor's Brotherhood Of Breath - Live At Willisau (1974), FLAC (tracks+.cue), lossless

(free jazz, Ogun) [cd] Chris McGregor's Brotherhood Of Breath - Live At Willisau (1974), FLAC (tracks+.cue), lossless
Треклист:
(free jazz, Ogun) [cd] Chris McGregor's Brotherhood Of Breath - Live At Willisau (1974), FLAC (tracks+.cue), lossless


Chris McGregor's Brotherhood Of Breath - Live At Willisau (1974)

Жанр: free jazz
Год выпуска: 1974
Издатель (лейбл):1994, Ogun / OGCD 001
Формат: FLAC (tracks+.cue)
Битрейт аудио: lossless
Продолжительность 01:05:50
Источник: what.cd
Alto Saxophone – Dudu Pukwana
Double Bass – Harry Miller
Drums – Louis Moholo
Piano – Chris McGregor
Tenor Saxophone – Evan Parker, Gary Windo
Trombone – Nick Evans, Radu Malfatti
Trumpet – Harry Beckett, Marc Charig, Mongezi Feza

tracks

1 Do It 11:08
2 Restless 2:40
3 Camel Dance 7:13
4 Davashe's Dream 7:44
5 Kongi's Theme 6:40
6 Tunji's Song 6:51
7 Ismite Is Might 4:28
8 The Serpent's Kindly Eye 8:25
9 Andromeda 3:58
10 Union Special 0:57
11 Funky Boots 5:41


 
.log
X Lossless Decoder version 20161007 (149.3)
XLD extraction logfile from 2016-11-10 06:16:34 -0500
Chris McGregor's Brotherhood Of Breath / Live At Willisau
Used drive : MATSHITA DVD-R UJ-8A8 (revision HB14)
Media type : Pressed CD
Ripper mode : XLD Secure Ripper
Disable audio cache : OK for the drive with a cache less than 1375KiB
Make use of C2 pointers : NO
Read offset correction : 102
Max retry count : 20
Gap status : Analyzed, Appended (except HTOA)
TOC of the extracted CD
Track | Start | Length | Start sector | End sector
---------------------------------------------------------
1 | 00:00:32 | 11:09:10 | 32 | 50216
2 | 11:09:42 | 02:41:35 | 50217 | 62326
3 | 13:51:02 | 07:13:35 | 62327 | 94836
4 | 21:04:37 | 07:46:00 | 94837 | 129786
5 | 28:50:37 | 06:41:20 | 129787 | 159881
6 | 35:31:57 | 06:51:58 | 159882 | 190764
7 | 42:23:40 | 04:28:47 | 190765 | 210911
8 | 46:52:12 | 08:25:68 | 210912 | 248854
9 | 55:18:05 | 03:58:57 | 248855 | 266761
10 | 59:16:62 | 00:57:40 | 266762 | 271076
11 | 60:14:27 | 05:41:05 | 271077 | 296656
AccurateRip Summary (DiscID: 001e3e9e-00ff88df-8f0f730b)
Track 01 : OK (v1, confidence 1/1)
Track 02 : OK (v1, confidence 1/1)
Track 03 : OK (v1, confidence 1/1)
Track 04 : OK (v1, confidence 1/1)
Track 05 : OK (v1, confidence 1/1)
Track 06 : OK (v1, confidence 1/1)
Track 07 : OK (v1, confidence 1/1)
Track 08 : OK (v1, confidence 1/1)
Track 09 : OK (v1, confidence 1/1)
Track 10 : OK (v1, confidence 1/1)
Track 11 : OK (v1, confidence 1/1)
->All tracks accurately ripped.
All Tracks
Album gain : -7.83 dB
Peak : 0.995300
Statistics
Read error : 0
Jitter error (maybe fixed) : 0
Retry sector count : 0
Damaged sector count : 0
Track 01
Filename : /Users/jonahhorwitz/Music/Music to upload/Chris McGregor's Brotherhood of Breath - Live at Willisau/Chris McGregor's Brotherhood Of Breath - Live At Willisau (1994) [FLAC]/01 Do It.flac
Pre-gap length : 00:02:32
Track gain : -8.39 dB
Peak : 0.995300
CRC32 hash (test run) : 0EF7B987
CRC32 hash : 0EF7B987
CRC32 hash (skip zero) : 151DE5A7
AccurateRip v1 signature : DDAC7D9F
AccurateRip v2 signature : 2AA1F222
->Accurately ripped (v1, confidence 1/1)
Statistics
Read error : 0
Jitter error (maybe fixed) : 0
Retry sector count : 0
Damaged sector count : 0
Track 02
Filename : /Users/jonahhorwitz/Music/Music to upload/Chris McGregor's Brotherhood of Breath - Live at Willisau/Chris McGregor's Brotherhood Of Breath - Live At Willisau (1994) [FLAC]/02 Restless.flac
Pre-gap length : 00:01:00
Track gain : -6.59 dB
Peak : 0.995300
CRC32 hash (test run) : 8E793A26
CRC32 hash : 8E793A26
CRC32 hash (skip zero) : E2C2B3A3
AccurateRip v1 signature : AF777C79
AccurateRip v2 signature : E6690419
->Accurately ripped (v1, confidence 1/1)
Statistics
Read error : 0
Jitter error (maybe fixed) : 0
Retry sector count : 0
Damaged sector count : 0
Track 03
Filename : /Users/jonahhorwitz/Music/Music to upload/Chris McGregor's Brotherhood of Breath - Live at Willisau/Chris McGregor's Brotherhood Of Breath - Live At Willisau (1994) [FLAC]/03 Camel Dance.flac
Pre-gap length : 00:01:00
Track gain : -6.44 dB
Peak : 0.995300
CRC32 hash (test run) : 5B228A4E
CRC32 hash : 5B228A4E
CRC32 hash (skip zero) : C153DEA8
AccurateRip v1 signature : 3C5ED704
AccurateRip v2 signature : BDBDE8DA
->Accurately ripped (v1, confidence 1/1)
Statistics
Read error : 0
Jitter error (maybe fixed) : 0
Retry sector count : 0
Damaged sector count : 0
Track 04
Filename : /Users/jonahhorwitz/Music/Music to upload/Chris McGregor's Brotherhood of Breath - Live at Willisau/Chris McGregor's Brotherhood Of Breath - Live At Willisau (1994) [FLAC]/04 Davashe's Dream.flac
Pre-gap length : 00:00:02
Track gain : -5.61 dB
Peak : 0.995300
CRC32 hash (test run) : 2161B676
CRC32 hash : 2161B676
CRC32 hash (skip zero) : ABC8FEC4
AccurateRip v1 signature : 50278700
AccurateRip v2 signature : D4AF128F
->Accurately ripped (v1, confidence 1/1)
Statistics
Read error : 0
Jitter error (maybe fixed) : 0
Retry sector count : 0
Damaged sector count : 0
Track 05
Filename : /Users/jonahhorwitz/Music/Music to upload/Chris McGregor's Brotherhood of Breath - Live at Willisau/Chris McGregor's Brotherhood Of Breath - Live At Willisau (1994) [FLAC]/05 Kongi's Theme.flac
Pre-gap length : 00:01:50
Track gain : -7.86 dB
Peak : 0.995300
CRC32 hash (test run) : C25572EB
CRC32 hash : C25572EB
CRC32 hash (skip zero) : FB9970A4
AccurateRip v1 signature : 5F89CC59
AccurateRip v2 signature : B23E3C35
->Accurately ripped (v1, confidence 1/1)
Statistics
Read error : 0
Jitter error (maybe fixed) : 0
Retry sector count : 0
Damaged sector count : 0
Track 06
Filename : /Users/jonahhorwitz/Music/Music to upload/Chris McGregor's Brotherhood of Breath - Live at Willisau/Chris McGregor's Brotherhood Of Breath - Live At Willisau (1994) [FLAC]/06 Tunji's Song.flac
Pre-gap length : 00:01:00
Track gain : -5.22 dB
Peak : 0.995300
CRC32 hash (test run) : 832339D5
CRC32 hash : 832339D5
CRC32 hash (skip zero) : 03D248EC
AccurateRip v1 signature : 5C3565C1
AccurateRip v2 signature : 335A8929
->Accurately ripped (v1, confidence 1/1)
Statistics
Read error : 0
Jitter error (maybe fixed) : 0
Retry sector count : 0
Damaged sector count : 0
Track 07
Filename : /Users/jonahhorwitz/Music/Music to upload/Chris McGregor's Brotherhood of Breath - Live at Willisau/Chris McGregor's Brotherhood Of Breath - Live At Willisau (1994) [FLAC]/07 Ismite Is Might.flac
Pre-gap length : 00:00:03
Track gain : -7.35 dB
Peak : 0.979309
CRC32 hash (test run) : 95E09F73
CRC32 hash : 95E09F73
CRC32 hash (skip zero) : B3B7B70A
AccurateRip v1 signature : 646A0C07
AccurateRip v2 signature : 950E5108
->Accurately ripped (v1, confidence 1/1)
Statistics
Read error : 0
Jitter error (maybe fixed) : 0
Retry sector count : 0
Damaged sector count : 0
Track 08
Filename : /Users/jonahhorwitz/Music/Music to upload/Chris McGregor's Brotherhood of Breath - Live at Willisau/Chris McGregor's Brotherhood Of Breath - Live At Willisau (1994) [FLAC]/08 The Serpent's Kindly Eye.flac
Pre-gap length : 00:00:02
Track gain : -7.56 dB
Peak : 0.995300
CRC32 hash (test run) : 35ECAB13
CRC32 hash : 35ECAB13
CRC32 hash (skip zero) : D3099584
AccurateRip v1 signature : CC2ECA21
AccurateRip v2 signature : 84C56BBD
->Accurately ripped (v1, confidence 1/1)
Statistics
Read error : 0
Jitter error (maybe fixed) : 0
Retry sector count : 0
Damaged sector count : 0
Track 09
Filename : /Users/jonahhorwitz/Music/Music to upload/Chris McGregor's Brotherhood of Breath - Live at Willisau/Chris McGregor's Brotherhood Of Breath - Live At Willisau (1994) [FLAC]/09 Andromeda.flac
Pre-gap length : 00:00:03
Track gain : -8.31 dB
Peak : 0.995270
CRC32 hash (test run) : E823CF63
CRC32 hash : E823CF63
CRC32 hash (skip zero) : EAE2353D
AccurateRip v1 signature : F9182420
AccurateRip v2 signature : 6CFBA333
->Accurately ripped (v1, confidence 1/1)
Statistics
Read error : 0
Jitter error (maybe fixed) : 0
Retry sector count : 0
Damaged sector count : 0
Track 10
Filename : /Users/jonahhorwitz/Music/Music to upload/Chris McGregor's Brotherhood of Breath - Live at Willisau/Chris McGregor's Brotherhood Of Breath - Live At Willisau (1994) [FLAC]/10 Union Special.flac
Pre-gap length : 00:00:02
Track gain : -8.61 dB
Peak : 0.995300
CRC32 hash (test run) : F7A85C66
CRC32 hash : F7A85C66
CRC32 hash (skip zero) : 5A9FBE1B
AccurateRip v1 signature : AA83C499
AccurateRip v2 signature : 04B5DEB0
->Accurately ripped (v1, confidence 1/1)
Statistics
Read error : 0
Jitter error (maybe fixed) : 0
Retry sector count : 0
Damaged sector count : 0
Track 11
Filename : /Users/jonahhorwitz/Music/Music to upload/Chris McGregor's Brotherhood of Breath - Live at Willisau/Chris McGregor's Brotherhood Of Breath - Live At Willisau (1994) [FLAC]/11 Funky Boots.flac
Pre-gap length : 00:00:02
Track gain : -9.26 dB
Peak : 0.995300
CRC32 hash (test run) : F5044C98
CRC32 hash : F5044C98
CRC32 hash (skip zero) : 569567ED
AccurateRip v1 signature : D6833B38
AccurateRip v2 signature : 368AF315
->Accurately ripped (v1, confidence 1/1)
Statistics
Read error : 0
Jitter error (maybe fixed) : 0
Retry sector count : 0
Damaged sector count : 0
No errors occurred
End of status report
-----BEGIN XLD SIGNATURE-----
ypgRQppkrm_3cGErNbELQRQawwp87q6k9M6tD3xsKogOz2WxoJO6SR_7TowIcNTlXHkQq40L_a_BVPT_U2Ji60mD91wq_LFKVD7US1i
-----END XLD SIGNATURE-----
 
.cue
TITLE "Live At Willisau"
PERFORMER "Chris McGregor's Brotherhood Of Breath"
REM GENRE "Jazz"
REM DATE "1974"
REM DISCID 8F0F730B
REM REPLAYGAIN_ALBUM_GAIN -7.83 dB
REM REPLAYGAIN_ALBUM_PEAK 0.995300
FILE "01 Do It.flac" WAVE
TRACK 01 AUDIO
TITLE "Do It"
REM REPLAYGAIN_TRACK_GAIN -8.39 dB
REM REPLAYGAIN_TRACK_PEAK 0.995300
PREGAP 00:00:32
INDEX 01 00:00:00
TRACK 02 AUDIO
TITLE "Restless"
REM REPLAYGAIN_TRACK_GAIN -6.59 dB
REM REPLAYGAIN_TRACK_PEAK 0.995300
INDEX 00 11:08:10
FILE "02 Restless.flac" WAVE
INDEX 01 00:00:00
TRACK 03 AUDIO
TITLE "Camel Dance"
REM REPLAYGAIN_TRACK_GAIN -6.44 dB
REM REPLAYGAIN_TRACK_PEAK 0.995300
INDEX 00 02:40:35
FILE "03 Camel Dance.flac" WAVE
INDEX 01 00:00:00
TRACK 04 AUDIO
TITLE "Davashe's Dream"
REM REPLAYGAIN_TRACK_GAIN -5.61 dB
REM REPLAYGAIN_TRACK_PEAK 0.995300
INDEX 00 07:13:33
FILE "04 Davashe's Dream.flac" WAVE
INDEX 01 00:00:00
TRACK 05 AUDIO
TITLE "Kongi's Theme"
REM REPLAYGAIN_TRACK_GAIN -7.86 dB
REM REPLAYGAIN_TRACK_PEAK 0.995300
INDEX 00 07:44:25
FILE "05 Kongi's Theme.flac" WAVE
INDEX 01 00:00:00
TRACK 06 AUDIO
TITLE "Tunji's Song"
REM REPLAYGAIN_TRACK_GAIN -5.22 dB
REM REPLAYGAIN_TRACK_PEAK 0.995300
INDEX 00 06:40:20
FILE "06 Tunji's Song.flac" WAVE
INDEX 01 00:00:00
TRACK 07 AUDIO
TITLE "Ismite Is Might"
REM REPLAYGAIN_TRACK_GAIN -7.35 dB
REM REPLAYGAIN_TRACK_PEAK 0.979309
INDEX 00 06:51:55
FILE "07 Ismite Is Might.flac" WAVE
INDEX 01 00:00:00
TRACK 08 AUDIO
TITLE "The Serpent's Kindly Eye"
REM REPLAYGAIN_TRACK_GAIN -7.56 dB
REM REPLAYGAIN_TRACK_PEAK 0.995300
INDEX 00 04:28:45
FILE "08 The Serpent's Kindly Eye.flac" WAVE
INDEX 01 00:00:00
TRACK 09 AUDIO
TITLE "Andromeda"
REM REPLAYGAIN_TRACK_GAIN -8.31 dB
REM REPLAYGAIN_TRACK_PEAK 0.995270
INDEX 00 08:25:65
FILE "09 Andromeda.flac" WAVE
INDEX 01 00:00:00
TRACK 10 AUDIO
TITLE "Union Special"
REM REPLAYGAIN_TRACK_GAIN -8.61 dB
REM REPLAYGAIN_TRACK_PEAK 0.995300
INDEX 00 03:58:55
FILE "10 Union Special.flac" WAVE
INDEX 01 00:00:00
TRACK 11 AUDIO
TITLE "Funky Boots"
REM REPLAYGAIN_TRACK_GAIN -9.26 dB
REM REPLAYGAIN_TRACK_PEAK 0.995300
INDEX 00 00:57:38
FILE "11 Funky Boots.flac" WAVE
INDEX 01 00:00:00
https://www.discogs.com/Chris-McGregors-Brotherhood-Of-Breath-Live-At-Willisau/release/595180
другие релизы
21:50
285
Нет комментариев. Ваш будет первым!