Вы используете незарегистрированную версию компонента "Вкладки"!

Поиск

(Free Jazz) Noah Howard - Noah Howard Quartet - 1993, FLAC (tracks+.cue) lossless

(Free Jazz) Noah Howard - Noah Howard Quartet - 1993, FLAC (tracks+.cue) lossless
Треклист:
Noah Howard - Noah Howard Quartet
Жанр: Free Jazz
Страна-производитель диска: Germany
Год издания диска: 1993
Издатель (лейбл): ESP-Disk
Номер по каталогу: ESP 1031-2
Аудио кодек: FLAC (*.flac)
Тип рипа: tracks+.cue
Битрейт аудио: lossless
Продолжительность: 29:47
Источник (релизер): собственный рип с оригинального диска.
Наличие сканов в содержимом раздачи: да
Треклист:
01. Henry's Street
02. Apotheosis
03. Apotheosis Extension I
04. And About Love
 
Лог создания рипа
Exact Audio Copy V0.99 prebeta 5 from 4. May 2009
EAC extraction logfile from 1. April 2011, 23:06
Noah Howard / Noah Howard Quartet
Used drive : TSSTcorpCDDVDW SH-S222A Adapter: 1 ID: 0
Read mode : Secure
Utilize accurate stream : Yes
Defeat audio cache : Yes
Make use of C2 pointers : No
Read offset correction : 6
Overread into Lead-In and Lead-Out : No
Fill up missing offset samples with silence : Yes
Delete leading and trailing silent blocks : No
Null samples used in CRC calculations : Yes
Used interface : Installed external ASPI interface
Gap handling : Appended to previous track
Used output format : User Defined Encoder
Selected bitrate : 768 kBit/s
Quality : High
Add ID3 tag : No
Command line compressor : C:\Tool\Compress\FLAC\flac.exe
Additional command line options : -8 -V -T "ARTIST=%a" -T "TITLE=%t" -T "ALBUM=%g" -T "DATE=%y" -T "TRACKNUMBER=%n" -T "TOTALTRACKS=%x" -T "GENRE=%m" -T "ALBUM ARTIST=%v" -T "COMMENT=EAC V0.99 prebeta 5, Secure Mode, Test & Copy, AccurateRip, FLAC -8" %s
TOC of the extracted CD
Track | Start | Length | Start sector | End sector
---------------------------------------------------------
1 | 0:00.00 | 7:24.25 | 0 | 33324
2 | 7:24.25 | 7:02.10 | 33325 | 64984
3 | 14:26.35 | 8:19.32 | 64985 | 102441
4 | 22:45.67 | 7:02.50 | 102442 | 134141
Track 1
Filename C:\! UPLOAD\Noah Howard - Noah Howard Quartet (1966) [FLAC] {ESP-Disk}\01 - Henry's Street.wav
Pre-gap length 0:00:02.00
Peak level 74.9 %
Track quality 100.0 %
Test CRC FFC19648
Copy CRC FFC19648
Accurately ripped (confidence 3) [8ED6D96C]
Copy OK
Track 2
Filename C:\! UPLOAD\Noah Howard - Noah Howard Quartet (1966) [FLAC] {ESP-Disk}\02 - Apostheosis.wav
Pre-gap length 0:00:02.73
Peak level 73.8 %
Track quality 100.0 %
Test CRC 144F41D9
Copy CRC 144F41D9
Accurately ripped (confidence 3) [E4BA7B2E]
Copy OK
Track 3
Filename C:\! UPLOAD\Noah Howard - Noah Howard Quartet (1966) [FLAC] {ESP-Disk}\03 - Apostheosis Extension I.wav
Pre-gap length 0:00:09.33
Peak level 72.9 %
Track quality 99.9 %
Test CRC 4A00AA0D
Copy CRC 4A00AA0D
Accurately ripped (confidence 3) [3D6B3CD6]
Copy OK
Track 4
Filename C:\! UPLOAD\Noah Howard - Noah Howard Quartet (1966) [FLAC] {ESP-Disk}\04 - And About Love.wav
Pre-gap length 0:00:02.62
Peak level 77.0 %
Track quality 100.0 %
Test CRC FBFE6B78
Copy CRC FBFE6B78
Accurately ripped (confidence 3) [35E1E49D]
Copy OK
All tracks accurately ripped
No errors occurred
End of status report
 
Содержание индексной карты (.CUE)
REM GENRE "Free Jazz"
REM DATE 1966
REM DISCID 3706FC04
REM COMMENT "ExactAudioCopy v0.99pb5"
PERFORMER "Noah Howard"
TITLE "Noah Howard Quartet"
FILE "01 - Henry's Street.wav" WAVE
TRACK 01 AUDIO
TITLE "Henry's Street"
PERFORMER "Noah Howard"
INDEX 01 00:00:00
TRACK 02 AUDIO
TITLE "Apostheosis"
PERFORMER "Noah Howard"
INDEX 00 07:21:45
FILE "02 - Apostheosis.wav" WAVE
INDEX 01 00:00:00
TRACK 03 AUDIO
TITLE "Apostheosis Extension I"
PERFORMER "Noah Howard"
INDEX 00 06:52:60
FILE "03 - Apostheosis Extension I.wav" WAVE
INDEX 01 00:00:00
TRACK 04 AUDIO
TITLE "And About Love"
PERFORMER "Noah Howard"
INDEX 00 08:16:60
FILE "04 - And About Love.wav" WAVE
INDEX 01 00:00:00
Доп. информация:
Recorded in NYC, in January, 1966
 
Об альбоме (сборнике)
His debut recording as leader.
In this pivotal recording in the development of early avant garde jazz, Howard proves himself as an innovator who boldly goes where Ornette Coleman, Marion Brown, or Frank Wright did not fear to tread. His alto saxophone sound and ideas clearly mirror Coleman, reaching for upper atmospheric, warp signatures, and also playing warm lyrical phrases. This is a free-bop excursion with raw trumpeter Ric Colbeck, well-regarded but undermixed bassist Scotty Holt, and unheralded drummer Dave Grant. Four pieces comprise this disc totaling just under 30 minutes, with no alternate takes or previously unissued material tacked on. "Henry's Street" (perhaps for Henry Grimes) starts with a repeated four-note phrase which merges to free-bopping lines with Grant swinging hard. This is where Howard's sound can be favorably compared to that of Coleman, as he uses clipped phrasings and upper register sonic blasts. A hefty, audible bass solo from Holt and cavalry military quotes from alto and trumpet conclude this ear opener. "Apotheosis" and "Apotheosis, Extension I" are quite dissimilar. The former is reminiscent of Coleman/Don Cherry approximate themes in a solemn, soulful unison tack leading into impressive interplay between the horns; the latter is a free, bluesy statement followed by soulfelt blowing and highly intense squawking. "And About Love" is lighter with its loose, compact, and fragmented associations. Grant's drumming is more urgent underneath the surface while Howard and Colbeck play sweet and sour segments leading to a free ending which is simultaneously raw, rambunctious, and highly concentrated in melody. Over the years Howard has become a tragically neglected figure, but remains a European-based icon who still records and occasionally visits the States. This is his debut recording, and a stark reminder of how he was in on the ground floor of this progressive movement. ~ Michael G. Nastos, Rovi
 
Состав
Rick Colbeck - trumpet
Noah Howard - alto sax
Scotty Holt - bass
Dave Grant- percussion
По всем вопросам пишите личное сообщение пользователю M0p94ok.
10:34
364
Нет комментариев. Ваш будет первым!