Вы используете незарегистрированную версию компонента "Вкладки"!

Поиск

(free jazz) Muhal Richard Abrams - SoundDance (2010), FLAC (tracks+.cue), lossless

(free jazz) Muhal Richard Abrams - SoundDance (2010), FLAC (tracks+.cue), lossless
Треклист:


Muhal Richard Abrams - SoundDance (2010)

Жанр: free jazz
Год выпуска: 2010
Издатель (лейбл):PI Recordings/ PI37
Формат: FLAC (tracks+.cue)
Битрейт аудио: lossless
Продолжительность: 1`23`27
Источник: what.cd
Muhal Richard Abrams
Fred Anderson
George Lewis

disc 1

1-1 Focus, ThruTime… Time→ Pt. 1 8:10
1-2 Focus, ThruTime… Time→ Pt. 2 8:45
1-3 Focus, ThruTime… Time→ Pt. 3 5:59
1-4 Focus, ThruTime… Time→ Pt. 4 15:16

 
.log
Exact Audio Copy V1.0 beta 3 from 29. August 2011
EAC extraction logfile from 28. November 2012, 17:08
Abrams, Muhal Richard / SoundDance CD 1 of 2 + Fred Anderson [PI Recordings PI37]
Used drive : HL-DT-STDVDRAM GT33N Adapter: 0 ID: 1
Read mode : Secure
Utilize accurate stream : Yes
Defeat audio cache : Yes
Make use of C2 pointers : No
Read offset correction : 103
Overread into Lead-In and Lead-Out : No
Fill up missing offset samples with silence : Yes
Delete leading and trailing silent blocks : No
Null samples used in CRC calculations : Yes
Used interface : Native Win32 interface for Win NT & 2000
Gap handling : Appended to previous track
Used output format : User Defined Encoder
Selected bitrate : 896 kBit/s
Quality : High
Add ID3 tag : No
Command line compressor : C:\Program Files (x86)\Exact Audio Copy\Flac\flac.exe
Additional command line options : -8 -V -T "ARTIST=%artist%" -T "TITLE=%title%" -T "ALBUM=%albumtitle%" -T "DATE=%year%" -T "TRACKNUMBER=%tracknr%" -T "GENRE=%genre%" -T "PERFORMER=%albuminterpret%" -T "COMPOSER=%composer%" %haslyrics%--tag-from-file=LYRICS="%lyricsfile%"%haslyrics% -T "ALBUMARTIST=%albumartist%" -T "DISCNUMBER=%cdnumber%" -T "TOTALDISCS=%totalcds%" -T "TOTALTRACKS=%numtracks%" -T "COMMENT=%comment%" %source% -o %dest%
TOC of the extracted CD
Track | Start | Length | Start sector | End sector
---------------------------------------------------------
1 | 0:00.00 | 8:10.09 | 0 | 36758
2 | 8:10.09 | 8:45.18 | 36759 | 76151
3 | 16:55.27 | 5:59.23 | 76152 | 103099
4 | 22:54.50 | 15:16.33 | 103100 | 171832
Track 1
Filename E:\EAC Rips\Muhal Richard Abrams - SoundDance (2010) [FLAC]\01 - Part 1.wav
Pre-gap length 0:00:02.00
Peak level 96.6 %
Extraction speed 1.4 X
Track quality 100.0 %
Test CRC E37BF336
Copy CRC E37BF336
Accurately ripped (confidence 2) [E6A8B3E7] (AR v2)
Copy OK
Track 2
Filename E:\EAC Rips\Muhal Richard Abrams - SoundDance (2010) [FLAC]\02 - Part 2.wav
Peak level 94.7 %
Extraction speed 1.8 X
Track quality 100.0 %
Test CRC 2309E278
Copy CRC 2309E278
Accurately ripped (confidence 2) [84076639] (AR v2)
Copy OK
Track 3
Filename E:\EAC Rips\Muhal Richard Abrams - SoundDance (2010) [FLAC]\03 - Part 3.wav
Peak level 92.3 %
Extraction speed 1.9 X
Track quality 100.0 %
Test CRC 4E38F7A7
Copy CRC 4E38F7A7
Accurately ripped (confidence 2) [E6545162] (AR v2)
Copy OK
Track 4
Filename E:\EAC Rips\Muhal Richard Abrams - SoundDance (2010) [FLAC]\04 - Part 4.wav
Peak level 96.6 %
Extraction speed 2.3 X
Track quality 100.0 %
Test CRC 4971D7B2
Copy CRC 4971D7B2
Accurately ripped (confidence 2) [E7F9A7FA] (AR v2)
Copy OK
All tracks accurately ripped
No errors occurred
End of status report
---- CUETools DB Plugin V2.1.3
[CTDB TOCID: dVCrVjWnoq8.gy21XxMFzlm4UPM-] found, Submit result: dVCrVjWnoq8.gy21XxMFzlm4UPM- has been confirmed
[cdd34a84] (1/1) Accurately ripped
==== Log checksum 5E6B9958CA86905A9B73FF933E1D7731CB6BDC384B2C60E2497B16C330356A5A ====
 
.cue
REM GENRE Jazz
REM DATE 2010
REM DISCID 2B08F304
REM COMMENT "ExactAudioCopy v1.0b3"
PERFORMER "Muhal Richard Abrams"
TITLE "SoundDance CD 1"
FILE "01 - Part 1.wav" WAVE
TRACK 01 AUDIO
TITLE "Part 1"
PERFORMER "Muhal Richard Abrams"
FLAGS DCP
INDEX 01 00:00:00
FILE "02 - Part 2.wav" WAVE
TRACK 02 AUDIO
TITLE "Part 2"
PERFORMER "Muhal Richard Abrams"
FLAGS DCP
INDEX 01 00:00:00
FILE "03 - Part 3.wav" WAVE
TRACK 03 AUDIO
TITLE "Part 3"
PERFORMER "Muhal Richard Abrams"
FLAGS DCP
INDEX 01 00:00:00
FILE "04 - Part 4.wav" WAVE
TRACK 04 AUDIO
TITLE "Part 4"
PERFORMER "Muhal Richard Abrams"
FLAGS DCP
INDEX 01 00:00:00


disc 2

2-1 SoundDance Pt. 1 10:43
2-2 SoundDance Pt. 2 11:17
2-3 SoundDance Pt. 3 5:21
2-4 SoundDance Pt. 4 17:55

 
.log
Exact Audio Copy V1.0 beta 3 from 29. August 2011
EAC extraction logfile from 28. November 2012, 18:07
Muhal Richards Abrams / SoundDance
Used drive : HL-DT-STDVDRAM GT33N Adapter: 0 ID: 1
Read mode : Secure
Utilize accurate stream : Yes
Defeat audio cache : Yes
Make use of C2 pointers : No
Read offset correction : 103
Overread into Lead-In and Lead-Out : No
Fill up missing offset samples with silence : Yes
Delete leading and trailing silent blocks : No
Null samples used in CRC calculations : Yes
Used interface : Native Win32 interface for Win NT & 2000
Gap handling : Appended to previous track
Used output format : User Defined Encoder
Selected bitrate : 896 kBit/s
Quality : High
Add ID3 tag : No
Command line compressor : C:\Program Files (x86)\Exact Audio Copy\Flac\flac.exe
Additional command line options : -8 -V -T "ARTIST=%artist%" -T "TITLE=%title%" -T "ALBUM=%albumtitle%" -T "DATE=%year%" -T "TRACKNUMBER=%tracknr%" -T "GENRE=%genre%" -T "PERFORMER=%albuminterpret%" -T "COMPOSER=%composer%" %haslyrics%--tag-from-file=LYRICS="%lyricsfile%"%haslyrics% -T "ALBUMARTIST=%albumartist%" -T "DISCNUMBER=%cdnumber%" -T "TOTALDISCS=%totalcds%" -T "TOTALTRACKS=%numtracks%" -T "COMMENT=%comment%" %source% -o %dest%
TOC of the extracted CD
Track | Start | Length | Start sector | End sector
---------------------------------------------------------
1 | 0:00.00 | 10:42.46 | 0 | 48195
2 | 10:42.46 | 11:17.29 | 48196 | 98999
3 | 22:00.00 | 5:20.47 | 99000 | 123046
4 | 27:20.47 | 17:55.38 | 123047 | 203709
Track 1
Filename E:\EAC Rips\Muhal Richard Abrams - SoundDance (2010) [FLAC]\CD 2\01 - Part 1.wav
Pre-gap length 0:00:02.00
Peak level 96.6 %
Extraction speed 1.5 X
Track quality 100.0 %
Test CRC 6642C8DD
Copy CRC 6642C8DD
Accurately ripped (confidence 2) [8E5AA83B] (AR v2)
Copy OK
Track 2
Filename E:\EAC Rips\Muhal Richard Abrams - SoundDance (2010) [FLAC]\CD 2\02 - Part 2.wav
Peak level 96.6 %
Extraction speed 1.9 X
Track quality 100.0 %
Test CRC 9C523071
Copy CRC 9C523071
Accurately ripped (confidence 2) [C309A347] (AR v2)
Copy OK
Track 3
Filename E:\EAC Rips\Muhal Richard Abrams - SoundDance (2010) [FLAC]\CD 2\03 - Part 3.wav
Peak level 96.6 %
Extraction speed 2.0 X
Track quality 100.0 %
Test CRC BC5846C8
Copy CRC BC5846C8
Accurately ripped (confidence 2) [9719EC47] (AR v2)
Copy OK
Track 4
Filename E:\EAC Rips\Muhal Richard Abrams - SoundDance (2010) [FLAC]\CD 2\04 - Part 4.wav
Peak level 96.6 %
Extraction speed 2.5 X
Track quality 100.0 %
Test CRC 52E86511
Copy CRC 52E86511
Accurately ripped (confidence 2) [29639977] (AR v2)
Copy OK
All tracks accurately ripped
No errors occurred
End of status report
---- CUETools DB Plugin V2.1.3
[CTDB TOCID: bf.BW_PzcJlhTLAh.A1x0iChZj0-] found, Submit result: bf.BW_PzcJlhTLAh.A1x0iChZj0- has been confirmed
[1c3469e5] (1/1) Accurately ripped
==== Log checksum 509DC19D937E7E30A0C4FA5F5FC36F2EAF55AE2AFDD114F15811BCCE480E2197 ====
 
.cue
REM GENRE Jazz
REM DATE 2010
REM DISCID 250A9C04
REM COMMENT "ExactAudioCopy v1.0b3"
PERFORMER "Muhal Richards Abrams"
TITLE "SoundDance CD 2"
FILE "01 - Part 1.wav" WAVE
TRACK 01 AUDIO
TITLE "Part 1"
PERFORMER "Muhal Richards Abrams"
FLAGS DCP
INDEX 01 00:00:00
FILE "02 - Part 2.wav" WAVE
TRACK 02 AUDIO
TITLE "Part 2"
PERFORMER "Muhal Richards Abrams"
FLAGS DCP
INDEX 01 00:00:00
FILE "03 - Part 3.wav" WAVE
TRACK 03 AUDIO
TITLE "Part 3"
PERFORMER "Muhal Richards Abrams"
FLAGS DCP
INDEX 01 00:00:00
FILE "04 - Part 4.wav" WAVE
TRACK 04 AUDIO
TITLE "Part 4"
PERFORMER "Muhal Richards Abrams"
FLAGS DCP
INDEX 01 00:00:00


другие релизы
Any questions -> support@pro-jazz.com. По всем вопросам пишите -> support@pro-jazz.com
06:58
345
Нет комментариев. Ваш будет первым!