Вы используете незарегистрированную версию компонента "Вкладки"!

Поиск

(Free Jazz, Modern Creative) Nate Wooley Quintet (Nate Wooley, Josh Sinton, Matt Moran, Eivind Opsvik, Harris Eisenstadt) - (Put Your) Hands Together - 2011, FLAC (tracks+.cue), lossless

(Free Jazz, Modern Creative) Nate Wooley Quintet (Nate Wooley, Josh Sinton, Matt Moran, Eivind Opsvik, Harris Eisenstadt) - (Put Your) Hands Together - 2011, FLAC (tracks+.cue), lossless
Треклист:
Nate Wooley Quintet / (Put Your) Hands Together
Жанр: Free Jazz, Modern Creative
Страна-производитель диска: Portugal
Год издания диска: 2011
Издатель (лейбл): Clean Feed
Номер по каталогу: CF218CD
Аудиокодек: FLAC (*.flac)
Тип рипа: tracks+.cue
Битрейт аудио: lossless
Продолжительность: 50:42
Источник (релизер): CD
Наличие сканов в содержимом раздачи: да
Треклист:
01. Shanda Lea (3:33)
02. Hands Together (9:49)
03. Erna (4:06)
04. Shanda Lea (2:58)
05. Ethyl (5:20)
06. Cecelia (9:05)
07. Pearl (2:16)
08. Elsa (5:51)
09. Hazel (3:45)
10. Shanda Lea (4:01)
 
Лог создания рипа
Exact Audio Copy V1.0 beta 2 from 29. April 2011
EAC extraction logfile from 24. February 2012, 12:43
Nate Wooley Quintet (Josho Sinton, Matt Moran, Eivind Opsvik, Harris Eisenstadt) / (Put Your) Hands Together
Used drive : Optiarc DVD RW AD-7240S Adapter: 2 ID: 0
Read mode : Secure
Utilize accurate stream : Yes
Defeat audio cache : Yes
Make use of C2 pointers : No
Read offset correction : 48
Overread into Lead-In and Lead-Out : No
Fill up missing offset samples with silence : Yes
Delete leading and trailing silent blocks : No
Null samples used in CRC calculations : Yes
Used interface : Installed external ASPI interface
Gap handling : Appended to previous track
Used output format : User Defined Encoder
Selected bitrate : 128 kBit/s
Quality : High
Add ID3 tag : No
Command line compressor : C:\Program Files\Exact Audio Copy\FLAC\FLAC.EXE
Additional command line options : -8 -V -T "ARTIST=%artist%" -T "TITLE=%title%" -T "ALBUM=%albumtitle%" -T "DATE=%year%" -T "TRACKNUMBER=%tracknr%" -T "GENRE=%genre%" -T "COMMENT=%comment%" -T "BAND=%albuminterpret%" -T "COMPOSER=%composer%" %haslyrics%--ta
TOC of the extracted CD
Track | Start | Length | Start sector | End sector
---------------------------------------------------------
1 | 0:00.00 | 3:33.18 | 0 | 15992
2 | 3:33.18 | 9:48.50 | 15993 | 60142
3 | 13:21.68 | 4:05.51 | 60143 | 78568
4 | 17:27.44 | 2:57.38 | 78569 | 91881
5 | 20:25.07 | 5:20.06 | 91882 | 115887
6 | 25:45.13 | 9:05.00 | 115888 | 156762
7 | 34:50.13 | 2:16.15 | 156763 | 166977
8 | 37:06.28 | 5:50.71 | 166978 | 193298
9 | 42:57.24 | 3:44.39 | 193299 | 210137
10 | 46:41.63 | 4:00.47 | 210138 | 228184
Track 1
Filename C:\Nate Wooley Quintet (2011) - (Put Your) Hands Together\01 Shanda Lea.wav
Pre-gap length 0:00:02.00
Peak level 98.8 %
Extraction speed 2.4 X
Track quality 100.0 %
Test CRC ADF8FDC2
Copy CRC ADF8FDC2
Track not present in AccurateRip database
Copy OK
Track 2
Filename C:\Nate Wooley Quintet (2011) - (Put Your) Hands Together\02 Hands Together.wav
Pre-gap length 0:00:03.00
Peak level 98.8 %
Extraction speed 3.1 X
Track quality 100.0 %
Test CRC 1DC0F1E3
Copy CRC 1DC0F1E3
Track not present in AccurateRip database
Copy OK
Track 3
Filename C:\Nate Wooley Quintet (2011) - (Put Your) Hands Together\03 Erna.wav
Pre-gap length 0:00:03.00
Peak level 98.8 %
Extraction speed 2.8 X
Track quality 99.9 %
Test CRC 1019FE74
Copy CRC 1019FE74
Track not present in AccurateRip database
Copy OK
Track 4
Filename C:\Nate Wooley Quintet (2011) - (Put Your) Hands Together\04 Shanda Lea.wav
Pre-gap length 0:00:03.00
Peak level 89.1 %
Extraction speed 3.2 X
Track quality 100.0 %
Test CRC B1BDFDD3
Copy CRC B1BDFDD3
Track not present in AccurateRip database
Copy OK
Track 5
Filename C:\Nate Wooley Quintet (2011) - (Put Your) Hands Together\05 Ethyl.wav
Pre-gap length 0:00:03.00
Peak level 98.8 %
Extraction speed 3.7 X
Track quality 100.0 %
Test CRC 1A1595E7
Copy CRC 1A1595E7
Track not present in AccurateRip database
Copy OK
Track 6
Filename C:\Nate Wooley Quintet (2011) - (Put Your) Hands Together\06 Cecelia.wav
Pre-gap length 0:00:03.00
Peak level 98.8 %
Extraction speed 4.2 X
Track quality 100.0 %
Test CRC 78976215
Copy CRC 78976215
Track not present in AccurateRip database
Copy OK
Track 7
Filename C:\Nate Wooley Quintet (2011) - (Put Your) Hands Together\07 Pearl.wav
Pre-gap length 0:00:03.00
Peak level 98.8 %
Extraction speed 3.7 X
Track quality 100.0 %
Test CRC 4A3FDC53
Copy CRC 4A3FDC53
Track not present in AccurateRip database
Copy OK
Track 8
Filename C:\Nate Wooley Quintet (2011) - (Put Your) Hands Together\08 Elsa.wav
Pre-gap length 0:00:03.00
Peak level 98.8 %
Extraction speed 4.1 X
Track quality 99.9 %
Test CRC F349DE31
Copy CRC F349DE31
Track not present in AccurateRip database
Copy OK
Track 9
Filename C:\Nate Wooley Quintet (2011) - (Put Your) Hands Together\09 Hazel.wav
Pre-gap length 0:00:03.00
Peak level 82.2 %
Extraction speed 4.4 X
Track quality 100.0 %
Test CRC F6A08DCE
Copy CRC F6A08DCE
Track not present in AccurateRip database
Copy OK
Track 10
Filename C:\Nate Wooley Quintet (2011) - (Put Your) Hands Together\10 Shanda Lea.wav
Pre-gap length 0:00:03.00
Peak level 98.8 %
Extraction speed 4.6 X
Track quality 100.0 %
Test CRC 85871770
Copy CRC 85871770
Track not present in AccurateRip database
Copy OK
None of the tracks are present in the AccurateRip database
No errors occurred
End of status report
==== Log checksum 2305CFF2322F34D778E01ACF1FE8E888E45433312470EC7AAA3309CCB33438D1 ====
 
Содержание индексной карты (.CUE)
REM GENRE Jazz
REM DATE 2011
REM DISCID 7F0BE20A
REM COMMENT "ExactAudioCopy v1.0b2"
PERFORMER "Nate Wooley Quintet (Josho Sinton, Matt Moran, Eivind Opsvik, Harris Eisenstadt)"
TITLE "(Put Your) Hands Together"
FILE "01 Shanda Lea.wav" WAVE
TRACK 01 AUDIO
TITLE "Shanda Lea"
PERFORMER "Nate Wooley Quintet (Josho Sinton, Matt Moran, Eivind Opsvik, Harris Eisenstadt)"
INDEX 01 00:00:00
TRACK 02 AUDIO
TITLE "Hands Together"
PERFORMER "Nate Wooley Quintet (Josho Sinton, Matt Moran, Eivind Opsvik, Harris Eisenstadt)"
INDEX 00 03:30:18
FILE "02 Hands Together.wav" WAVE
INDEX 01 00:00:00
TRACK 03 AUDIO
TITLE "Erna"
PERFORMER "Nate Wooley Quintet (Josho Sinton, Matt Moran, Eivind Opsvik, Harris Eisenstadt)"
INDEX 00 09:45:50
FILE "03 Erna.wav" WAVE
INDEX 01 00:00:00
TRACK 04 AUDIO
TITLE "Shanda Lea"
PERFORMER "Nate Wooley Quintet (Josho Sinton, Matt Moran, Eivind Opsvik, Harris Eisenstadt)"
INDEX 00 04:02:51
FILE "04 Shanda Lea.wav" WAVE
INDEX 01 00:00:00
TRACK 05 AUDIO
TITLE "Ethyl"
PERFORMER "Nate Wooley Quintet (Josho Sinton, Matt Moran, Eivind Opsvik, Harris Eisenstadt)"
INDEX 00 02:54:38
FILE "05 Ethyl.wav" WAVE
INDEX 01 00:00:00
TRACK 06 AUDIO
TITLE "Cecelia"
PERFORMER "Nate Wooley Quintet (Josho Sinton, Matt Moran, Eivind Opsvik, Harris Eisenstadt)"
INDEX 00 05:17:06
FILE "06 Cecelia.wav" WAVE
INDEX 01 00:00:00
TRACK 07 AUDIO
TITLE "Pearl"
PERFORMER "Nate Wooley Quintet (Josho Sinton, Matt Moran, Eivind Opsvik, Harris Eisenstadt)"
INDEX 00 09:02:00
FILE "07 Pearl.wav" WAVE
INDEX 01 00:00:00
TRACK 08 AUDIO
TITLE "Elsa"
PERFORMER "Nate Wooley Quintet (Josho Sinton, Matt Moran, Eivind Opsvik, Harris Eisenstadt)"
INDEX 00 02:13:15
FILE "08 Elsa.wav" WAVE
INDEX 01 00:00:00
TRACK 09 AUDIO
TITLE "Hazel"
PERFORMER "Nate Wooley Quintet (Josho Sinton, Matt Moran, Eivind Opsvik, Harris Eisenstadt)"
INDEX 00 05:47:71
FILE "09 Hazel.wav" WAVE
INDEX 01 00:00:00
TRACK 10 AUDIO
TITLE "Shanda Lea"
PERFORMER "Nate Wooley Quintet (Josho Sinton, Matt Moran, Eivind Opsvik, Harris Eisenstadt)"
INDEX 00 03:41:39
FILE "10 Shanda Lea.wav" WAVE
INDEX 01 00:00:00
 
Доп. информация
Recorded September 16, 2010 by Jon Rosenberg at Systems Two, Brooklyn, NY.
 
Об альбоме (сборнике)
(Put Your) Hands Together's cover art features a photo of trumpeter Nate Wooley putting his hands together, perhaps as a token of appreciation for his quintet's exemplary performance. Praise is in order because of the program's captivating synchronicity, artfully scaling between structure and improvisation to complement an abundance of polytonal facets. With penetrating compositions and thoughtful improvisational metrics, Wooley's bronze-toned lines and prophetic choruses loom as a commanding force.
"Ethyl" features an idiomatic tenor that differs from several other pieces on the album. Commencing with vibraphonist Matt Moran and bass clarinetist Josh Sinton's throbbing ostinato, sparkling contrasts set forth by Wooley's slurry-like wah-wah notes cast an affable outlook that generates a liquescent tonality. But the quintet breezily launches into a crisp free-bop vamp led by Sinton's torrid soloing, spiced with gravelly nuances. Energetic, linear, and sublime, "Ethyl," is designed with variances in pitch and buoyant theme-building exercises.
Wooley and associates offer brain food for the psyche's insatiable appetite. His solicitous and largely mesmeric arrangements reaffirm his mounting prominence in the boundless realm of jazz improvisation. ~ glenn astarita, allaboutjazz.com, may 23, 2011
By this time we have all learned to expect everything from trumpeter Nate Wooley, from post-bop heritage to the most abstract improvisation. This CD adds something more to what you already know about this extraordinary musician. Not because it mixes his diferent interests in one project – although it does –, but because he keeps things going forward, never repeating himself. Of course, with a little help from his friends, who provide Nate with all the "space" he needs to act. With personal references like Steve Lacy and John Cage, bass clarinetist Josh Sinton combines the tradition and the the avant-garde with the same naturality and the same competence. Dealing with the, only apparent, delicacy of the vibraphone's crystal clear sounds, Matt Moran confirms a comparison already made between him and a speed-chess player. Eivind Opsvik uses the contrabass as a sculpting tool, never emprisoned with just one box of idiomatic vocabularies. Last but not least, drummer Harris Eisenstadt provides the polyrhythmic mastery he brought from his African travels, and the contemporary classical techniques he introduced in his jazz playing. "(Put Your) Hands Together" is a particularly inventive example of the progressive music performed these days. ~ cleanfeed-records.com
The always daring trumpeter Nate Wooley taps drummer Harry Eisenstadt, bassist Eivind Opsvik, vibraphonist Matt Moran and, on bass clarinet, Josh Sinton for his smart and subversive Clean Feed debut. The blend between bass clarinet, trumpet and vibes is particularly arresting on pieces like the plaintive rubato number “Erna,” the frenetic “Elsa,” the frantically swinging “Cecelia” and the bombastic title track, all of which rekindle memories of Eric Dolphy’s Out to Lunch! Wooley also delivers two avant-garde solo trumpet pieces in “Shanda Lea 1” and “Shanda Lea 3,” and pairs with Sinton for a compelling and freewheeling duet on “Shanda Lea 2.” ~ bill milkowski, jazztimes.com, june 2011
 
Состав
Nate Wooley - trumpet
Josh Sinton - bass clarinet
Matt Moran - vibraphone
Eivind Opsvik - double bass
Harris Eisenstadt - drums
Any questions -> support@pro-jazz.com. По всем вопросам пишите -> support@pro-jazz.com
22:21
185
Нет комментариев. Ваш будет первым!