Вы используете незарегистрированную версию компонента "Вкладки"!

Поиск

(Free Jazz, Modern Creative) Jemeel Moondoc Trio - Judy's Bounce - 1981, FLAC (image+.cue), lossless

(Free Jazz, Modern Creative) Jemeel Moondoc Trio - Judy's Bounce - 1981, FLAC (image+.cue), lossless
Треклист:
Jemeel Moondoc Trio - Judy's Bounce
Жанр: Free Jazz, Modern Creative
Страна-производитель диска: Италия
Год издания: 1981
Издатель (лейбл): Soul Note
Номер по каталогу: 121051-2
Аудиокодек: FLAC (*.flac)
Тип рипа: image+.cue
Битрейт аудио: lossless
Продолжительность: 44:56
Источник (релизер): dreadbull (hqshare)
Наличие сканов в содержимом раздачи: да
Треклист:
01. Judy's Bounce (Moondoc) - 8:43
02. Echo in Blue (Moondoc) - 13:42
03. One for Ornette (Moondoc) - 8:40
04. Nimus (Moondoc) - 13:38
Состав:
Jemeel Moondoc - alto saxophone
Fred Hopkins - bass
Ed Blackwell - drums
Recorded live at New York University Loeb Student Center on November 9, 1981.
 
Лог создания рипа
Exact Audio Copy V1.0 beta 3 from 29. August 2011
EAC extraction logfile from 26. April 2012, 16:25
Moondoc, Jemeel / Judy's Bounce
Used drive : ASUS DRW-22B2L Adapter: 0 ID: 1
Read mode : Secure
Utilize accurate stream : Yes
Defeat audio cache : Yes
Make use of C2 pointers : No
Read offset correction : 6
Overread into Lead-In and Lead-Out : No
Fill up missing offset samples with silence : Yes
Delete leading and trailing silent blocks : No
Null samples used in CRC calculations : Yes
Used interface : Native Win32 interface for Win NT & 2000
Used output format : User Defined Encoder
Selected bitrate : 128 kBit/s
Quality : High
Add ID3 tag : Yes
Command line compressor : C:\Program Files\FLAC\flac.exe
Additional command line options : -8 -V -T "ARTIST=%artist%" -T "TITLE=%title%" -T "ALBUM=%albumtitle%" -T "DATE=%year%" -T "TRACKNUMBER=%tracknr%" -T "GENRE=%genre%" -T "PERFORMER=%albuminterpret%" -T "COMPOSER=%composer%" %haslyrics%--tag-from-file=LYRICS="%lyricsfile%"%haslyrics% -T "ALBUMARTIST=%albumartist%" -T "DISCNUMBER=%cdnumber%" -T "TOTALDISCS=%totalcds%" -T "TOTALTRACKS=%numtracks%" -T "COMMENT=%comment%" %source% -o %dest%
TOC of the extracted CD
Track | Start | Length | Start sector | End sector
---------------------------------------------------------
1 | 0:00.33 | 8:45.35 | 33 | 39442
2 | 8:45.68 | 13:45.40 | 39443 | 101357
3 | 22:31.33 | 8:42.27 | 101358 | 140534
4 | 31:13.60 | 13:42.48 | 140535 | 202232
Range status and errors
Selected range
Filename D:\Donkey Files\Jemeel Moondoc Trio - Judy's Bounce (1982, Soul Note) [eac-flac-scans] byDrBull\Judy's Bounce.wav
Peak level 88.2 %
Extraction speed 5.5 X
Range quality 100.0 %
Test CRC 1B20D7B0
Copy CRC 1B20D7B0
Copy OK
No errors occurred
AccurateRip summary
Track 1 accurately ripped (confidence 2) [140C396D] (AR v1)
Track 2 accurately ripped (confidence 2) [C8E925E5] (AR v1)
Track 3 accurately ripped (confidence 2) [DE7567FC] (AR v1)
Track 4 accurately ripped (confidence 2) [7FE84BD8] (AR v1)
All tracks accurately ripped
End of status report
==== Log checksum CF9C0B629D9C04F4B29F5698C3D7AEB50E29A12D22B38349E9A69F0C0AB8739A ====
 
Содержание индексной карты (.CUE)
REM GENRE Jazz
REM DATE 1981
REM DISCID 310A8804
REM COMMENT "ExactAudioCopy v1.0b3"
PERFORMER "Moondoc, Jemeel"
TITLE "Judy's Bounce"
FILE "Judy's Bounce.flac" WAVE
TRACK 01 AUDIO
TITLE "Judy's Bounce"
PERFORMER "Moondoc, Jemeel"
INDEX 00 00:00:00
INDEX 01 00:00:33
TRACK 02 AUDIO
TITLE "Echo in Blue"
PERFORMER "Moondoc, Jemeel"
INDEX 01 08:45:68
TRACK 03 AUDIO
TITLE "One for Ornette"
PERFORMER "Moondoc, Jemeel"
INDEX 01 22:31:33
TRACK 04 AUDIO
TITLE "Nimus"
PERFORMER "Moondoc, Jemeel"
INDEX 01 31:13:60
 
Об альбоме (сборнике)
The three players on this album have ears like rabbits. If one ticks, another one tocks; if one pings, another one pongs. They are always listening, always responding and always on the money. Fred Hopkins and Ed Blackwell are veterans who are well-known to be blessed with the qualities that make them such consummate players -- timing, soulfulness, swinging individuality. ...Jemell Moondoc is an exciting player with a sweet, warm tone on the alto saxophone and an emotional depth that sets him yards apart from most of his peers. His playing has a very vocal quality which furthers the illusion here that these are four three-way discussions between very wise, very witty and very interesting gentlemen.
~from the liner notes by Lee Jeske
Any questions -> support@pro-jazz.com. По всем вопросам пишите -> support@pro-jazz.com
03:33
109
Нет комментариев. Ваш будет первым!