Вы используете незарегистрированную версию компонента "Вкладки"!

Поиск

(Free Jazz, Modern Creative) Jemeel Moondoc Sextet - Konstanze's Delight - 1983, FLAC (image+.cue), lossless

(Free Jazz, Modern Creative) Jemeel Moondoc Sextet - Konstanze's Delight - 1983, FLAC (image+.cue), lossless
Треклист:
Jemeel Moondoc Sextet - Konstanze's Delight
Жанр: Free Jazz, Modern Creative
Страна-производитель диска: Италия
Год издания: 1983
Издатель (лейбл): Soul Note
Номер по каталогу: 121041-2
Страна: США
Аудиокодек: FLAC (*.flac)
Тип рипа: image+.cue
Битрейт аудио: lossless
Продолжительность: 46:28
Источник (релизер): dreadbull (hqshare)
Наличие сканов в содержимом раздачи: да
Треклист:
01. Konstanze's Delight (Moondoc) - 30:43
02. Chasing the Moon (Moondoc) - 13:20
03. High Rise (Moondoc) - 2:25
Состав:
Roy Campbell - trumpet
Jemeel Moondoc - alto saxophone
Khan Jamal - vibraphone
William Parker - bass
Dennis Charles - drums
Ellen Christi - vocals
Recorded live at 3rd Street Music School, New York on October 24, 1981.
 
Лог создания рипа
Exact Audio Copy V1.0 beta 3 from 29. August 2011
EAC extraction logfile from 2. May 2012, 15:42
Jemell Moondoc Sextet / Konstanze's Delight
Used drive : ASUS DRW-22B2L Adapter: 0 ID: 1
Read mode : Secure
Utilize accurate stream : Yes
Defeat audio cache : Yes
Make use of C2 pointers : No
Read offset correction : 6
Overread into Lead-In and Lead-Out : No
Fill up missing offset samples with silence : Yes
Delete leading and trailing silent blocks : No
Null samples used in CRC calculations : Yes
Used interface : Native Win32 interface for Win NT & 2000
Used output format : User Defined Encoder
Selected bitrate : 128 kBit/s
Quality : High
Add ID3 tag : Yes
Command line compressor : C:\Program Files\FLAC\flac.exe
Additional command line options : -8 -V -T "ARTIST=%artist%" -T "TITLE=%title%" -T "ALBUM=%albumtitle%" -T "DATE=%year%" -T "TRACKNUMBER=%tracknr%" -T "GENRE=%genre%" -T "PERFORMER=%albuminterpret%" -T "COMPOSER=%composer%" %haslyrics%--tag-from-file=LYRICS="%lyricsfile%"%haslyrics% -T "ALBUMARTIST=%albumartist%" -T "DISCNUMBER=%cdnumber%" -T "TOTALDISCS=%totalcds%" -T "TOTALTRACKS=%numtracks%" -T "COMMENT=%comment%" %source% -o %dest%
TOC of the extracted CD
Track | Start | Length | Start sector | End sector
---------------------------------------------------------
1 | 0:00.32 | 30:43.15 | 32 | 138271
2 | 30:43.47 | 13:19.58 | 138272 | 198254
3 | 44:03.30 | 2:24.50 | 198255 | 209104
Range status and errors
Selected range
Filename D:\Donkey Files\Jemeel Moondoc Sextet - Konstanze's Delight (1983, Soul Note) [eac-flac-scans] byDrBull\Konstanze's Delight.wav
Peak level 98.9 %
Extraction speed 5.5 X
Range quality 100.0 %
Test CRC FDD72DCC
Copy CRC FDD72DCC
Copy OK
No errors occurred
AccurateRip summary
Track 1 accurately ripped (confidence 1) [44AB3426] (AR v1)
Track 2 accurately ripped (confidence 1) [8F7746EC] (AR v1)
Track 3 accurately ripped (confidence 1) [DB347E93] (AR v1)
All tracks accurately ripped
End of status report
==== Log checksum 6C6A60CC658E992C4F3DE16847993BB5D88CEBEA237A9D222662F1FF99D9FAB7 ====
 
Содержание индексной карты (.CUE)
REM GENRE "Experimental Jazz"
REM DATE 1983
REM DISCID 250AE403
REM COMMENT "ExactAudioCopy v1.0b3"
PERFORMER "Jemell Moondoc Sextet"
TITLE "Konstanze's Delight"
FILE "Konstanze's Delight.wav" WAVE
TRACK 01 AUDIO
TITLE "Konstanze's Delight"
PERFORMER "Jemell Moondoc Sextet"
INDEX 00 00:00:00
INDEX 01 00:00:32
TRACK 02 AUDIO
TITLE "Chasing the Moon"
PERFORMER "Jemell Moondoc Sextet"
INDEX 01 30:43:47
TRACK 03 AUDIO
TITLE "High Rise"
PERFORMER "Jemell Moondoc Sextet"
INDEX 01 44:03:30
 
Об альбоме (сборнике)
Konstanze's Delight consists of just three long pieces, the first of them an opportunity for the whole band to show its stuff. As so often in this context, Parker is the cement, setting off on dark, seductive chant that gradually reels in Moondoc, Campbell and the underrated Jamal, who conjures up storms on this record. The two horns seem to be engaged in a game of one-on-one ball, chasing, dodging, body-checking and setting up half a dozen false climaxes before the whole thing unwinds. At longer than half an hour, it palls pretty seriously before time's up, but it's part of a live set and is doubtless pretty typical of what Moondoc was doing at the time. "Chasin' the Moon" is high-octane stuff, a starring vehicle for Jamal and Christi.
~The Penguin Guide to Jazz
Any questions -> support@pro-jazz.com. По всем вопросам пишите -> support@pro-jazz.com
03:20
210
Нет комментариев. Ваш будет первым!