Вы используете незарегистрированную версию компонента "Вкладки"!

Поиск

(Free Jazz, Modern Creative, Hat Hut) Habarigani - Two - 1991, FLAC (image+.cue), lossless

Треклист:
Habarigani / Two
Жанр: Free Jazz, Modern Creative
Страна-производитель диска: Switzerland
Год издания диска: 1991
Издатель (лейбл): Hat Hut
Номер по каталогу: hat ART CD 6064
Страна: Switzerland
Аудиокодек: FLAC (*.flac)
Тип рипа: image+.cue
Битрейт аудио: lossless
Продолжительность: 1:02:45
Источник (релизер): CD
Наличие сканов в содержимом раздачи: да
Треклист:
01 - Numinous
02 - So Evidently
03 - Games
04 - Duo 9
05 - Sabina and Piselli
06 - Kein Schnee
07 - Hoi Hoi
08 - Duo 14
09 - Quartet 7
10 - Extra Goodies
 
Лог создания рипа
Exact Audio Copy V1.0 beta 2 from 29. April 2011
EAC extraction logfile from 25. July 2011, 14:36
Habarigani / Two
Used drive : Optiarc DVD RW AD-7240S Adapter: 2 ID: 0
Read mode : Secure
Utilize accurate stream : Yes
Defeat audio cache : Yes
Make use of C2 pointers : No
Read offset correction : 48
Overread into Lead-In and Lead-Out : No
Fill up missing offset samples with silence : Yes
Delete leading and trailing silent blocks : No
Null samples used in CRC calculations : Yes
Used interface : Native Win32 interface for Win NT & 2000
Used output format : User Defined Encoder
Selected bitrate : 768 kBit/s
Quality : High
Add ID3 tag : No
Command line compressor : C:\Program Files\Exact Audio Copy\FLAC\FLAC.EXE
Additional command line options : -6 -V -T "ARTIST=%artist%" -T "TITLE=%title%" -T "ALBUM=%albumtitle%" -T "DATE=%year%" -T "TRACKNUMBER=%tracknr%" -T "GENRE=%genre%" -T "COMMENT=%comment%" -T "BAND=%albuminterpret%" -T "COMPOSER=%composer%" %haslyrics%--ta
TOC of the extracted CD
Track | Start | Length | Start sector | End sector
---------------------------------------------------------
1 | 0:00.00 | 8:00.62 | 0 | 36061
2 | 8:00.62 | 3:08.00 | 36062 | 50161
3 | 11:08.62 | 11:44.00 | 50162 | 102961
4 | 22:52.62 | 5:46.00 | 102962 | 128911
5 | 28:38.62 | 5:15.00 | 128912 | 152536
6 | 33:53.62 | 6:37.00 | 152537 | 182311
7 | 40:30.62 | 6:06.00 | 182312 | 209761
8 | 46:36.62 | 3:57.00 | 209762 | 227536
9 | 50:33.62 | 7:42.00 | 227537 | 262186
10 | 58:15.62 | 4:29.13 | 262187 | 282374
Range status and errors
Selected range
Filename C:\Documents and Settings\User\Мои документы\Habarigani - Two (1991)\Habarigani - Two.wav
Peak level 100.0 %
Extraction speed 4.2 X
Range quality 100.0 %
Test CRC BB13F9CE
Copy CRC BB13F9CE
Copy OK
No errors occurred
AccurateRip summary
Track 1 accurately ripped (confidence 2) [63043ED0] (AR v1)
Track 2 accurately ripped (confidence 2) [4FCD6383] (AR v1)
Track 3 accurately ripped (confidence 2) [B207A59A] (AR v1)
Track 4 accurately ripped (confidence 2) [78717546] (AR v1)
Track 5 accurately ripped (confidence 2) [37A499A1] (AR v1)
Track 6 accurately ripped (confidence 2) [1A32B742] (AR v1)
Track 7 accurately ripped (confidence 2) [B19C6811] (AR v1)
Track 8 accurately ripped (confidence 2) [03B27BAD] (AR v1)
Track 9 accurately ripped (confidence 2) [023414A2] (AR v1)
Track 10 accurately ripped (confidence 2) [90014EFE] (AR v1)
All tracks accurately ripped
End of status report
==== Log checksum 558E0092ABB628F482B73E722A0A5BAA90CFB311B33859A3EC6316D1C31E004B ====
 
Содержание индексной карты (.CUE)
REM GENRE Jazz
REM DATE 1991
REM DISCID 870EB50A
REM COMMENT "ExactAudioCopy v1.0b2"
CATALOG 0000000000000
PERFORMER "Habarigani"
TITLE "Two"
FILE "Habarigani - Two.flac" WAVE
TRACK 01 AUDIO
TITLE "Numinous"
PERFORMER "Habarigani"
INDEX 01 00:00:00
TRACK 02 AUDIO
TITLE "So Evidently"
PERFORMER "Habarigani"
INDEX 01 08:00:62
TRACK 03 AUDIO
TITLE "Games"
PERFORMER "Habarigani"
INDEX 01 11:08:62
TRACK 04 AUDIO
TITLE "Duo 9"
PERFORMER "Habarigani"
INDEX 01 22:52:62
TRACK 05 AUDIO
TITLE "Sabina And Piselli"
PERFORMER "Habarigani"
INDEX 01 28:38:62
TRACK 06 AUDIO
TITLE "Kein Schnee"
PERFORMER "Habarigani"
INDEX 01 33:53:62
TRACK 07 AUDIO
TITLE "Hoi Hoi"
PERFORMER "Habarigani"
INDEX 01 40:30:62
TRACK 08 AUDIO
TITLE "Duo 14"
PERFORMER "Habarigani"
INDEX 01 46:36:62
TRACK 09 AUDIO
TITLE "Quartet 7"
PERFORMER "Habarigani"
INDEX 01 50:33:62
TRACK 10 AUDIO
TITLE "Extra Goodies"
PERFORMER "Habarigani"
INDEX 01 58:15:62
 
Об альбоме (сборнике)
Habarigani are four Swiss yobs that can play any kind of music you can throw at them. They seem to gravitate toward jazz and modern classical music, as well as to Swiss popular and folk tunes, but that's where categorization stops. This is a ... Full Descriptionmusicians' collective. All members are composers, all members are fine improvisers, and all play multiple instruments, mostly woodwinds, reeds, and brass, but there is a prominently featured accordion courtesy of Hans Hassler as well. Their first, self-titled record was a workout that had the group wetting their feet and exploring their own unique textures and timbres in the same way that other collectives like Don Cherry and Collin Walcott's Codona did, or the Eric Dolphy/Mal Waldron band, Steve Lacy Sextet, or the Kronos Quartet. All things are equal; all things are different from everything else on the planet. That said, there are places where you can hear the band's sentiments, such as in "Sao Numinous," which quotes liberally and tenderly from the complex harmonics of Thelonious Monk's "Evidence," with the squeezebox no less. But where does one put an exercise in breath and tone control like "Numinous," where trombones, clarinets, bass clarinets, trumpet, and accordion crawl around one another's phraseology in order to arrive at the "truth of the drone"? Perhaps in "Sabrina and Piselli," where certain slants of Charles Mingus' sunlight in his New Tijuana Moods period can be heard, or in Darius Milhaud's sonic landscapes in Hans Hassler's "Kein Schnee." But it's not who you can hear inside Habarigani's compositions that matters as much as what they do with them contrapuntally and harmonically. The melodic invention put forth by this quartet ups the ante for modern jazz and improvised music. This band's first recording led to high expectations for a follow-up; number two surpasses them in spades.
 
Состав
Hans Kennel - trumpet & flugelhorn
Roland Dahinden - trombone
Thomas Eckert - clarinet & bassclarinet
Hans Hassler - accordion, clarinet & bassclarinet
По всем вопросам пишите личное сообщение пользователю M0p94ok.
15:15
179
Нет комментариев. Ваш будет первым!