Вы используете незарегистрированную версию компонента "Вкладки"!

Поиск

(Free Jazz, Modern Creative, Hat Hut) Bobby Bradford - John Carter Quintet / Comin'On - 1991, FLAC (image+.cue), lossless

(Free Jazz, Modern Creative, Hat Hut) Bobby Bradford - John Carter Quintet / Comin'On - 1991, FLAC (image+.cue), lossless
Треклист:
Bobby Bradford - John Carter Quintet / Comin'On
Жанр: Free Jazz, Modern Creative
Страна-производитель диска: Switzerland
Год издания диска: 1991
Издатель (лейбл): Hat Hut
Номер по каталогу: hat ART CD 6016
Страна: USA
Аудиокодек: FLAC (*.flac)
Тип рипа: image+.cue
Битрейт аудио: lossless
Продолжительность: 1:14:57
Источник (релизер): CD
Наличие сканов в содержимом раздачи: да
Треклист:
01 - Comin'On (15:18)
02 - Ode to the Flower Maiden (9:51)
03 - Encounter (16:20)
04 - Sunday Afternoon Jazz Society Blues (18:35)
05 - Room 408 (14:52)
 
Лог создания рипа
Exact Audio Copy V1.0 beta 2 from 29. April 2011
EAC extraction logfile from 11. July 2011, 13:17
Bobby Bradford - John Carter Quintet / Comin' On
Used drive : Optiarc DVD RW AD-7240S Adapter: 2 ID: 0
Read mode : Secure
Utilize accurate stream : Yes
Defeat audio cache : Yes
Make use of C2 pointers : No
Read offset correction : 48
Overread into Lead-In and Lead-Out : No
Fill up missing offset samples with silence : Yes
Delete leading and trailing silent blocks : No
Null samples used in CRC calculations : Yes
Used interface : Native Win32 interface for Win NT & 2000
Used output format : User Defined Encoder
Selected bitrate : 768 kBit/s
Quality : High
Add ID3 tag : No
Command line compressor : C:\Program Files\Exact Audio Copy\FLAC\FLAC.EXE
Additional command line options : -6 -V -T "ARTIST=%artist%" -T "TITLE=%title%" -T "ALBUM=%albumtitle%" -T "DATE=%year%" -T "TRACKNUMBER=%tracknr%" -T "GENRE=%genre%" -T "COMMENT=%comment%" -T "BAND=%albuminterpret%" -T "COMPOSER=%composer%" %haslyrics%--ta
TOC of the extracted CD
Track | Start | Length | Start sector | End sector
---------------------------------------------------------
1 | 0:00.00 | 15:18.62 | 0 | 68911
2 | 15:18.62 | 9:51.00 | 68912 | 113236
3 | 25:09.62 | 16:20.00 | 113237 | 186736
4 | 41:29.62 | 18:35.00 | 186737 | 270361
5 | 60:04.62 | 14:52.13 | 270362 | 337274
Range status and errors
Selected range
Filename C:\Documents and Settings\User\Мои документы\Bobby Bradford - John Carter Quintet - Comin' On (1991)\Bobby Bradford - John Carter Quintet - Comin' On.wav
Peak level 100.0 %
Extraction speed 4.5 X
Range quality 100.0 %
Test CRC A30EBFB0
Copy CRC A30EBFB0
Copy OK
No errors occurred
AccurateRip summary
Track 1 accurately ripped (confidence 2) [BEF90CF4] (AR v1)
Track 2 accurately ripped (confidence 2) [C631CC2F] (AR v1)
Track 3 accurately ripped (confidence 2) [589739CC] (AR v1)
Track 4 accurately ripped (confidence 2) [0DD750AE] (AR v1)
Track 5 accurately ripped (confidence 2) [8E86D31E] (AR v1)
All tracks accurately ripped
End of status report
==== Log checksum 1AAEED5D8B1F71FEF4629CAE815A0E6AC366D08323358B83587D7A82948DA444 ====
 
Содержание индексной карты (.CUE)
REM GENRE Jazz
REM DATE 1991
REM DISCID 34119105
REM COMMENT "ExactAudioCopy v1.0b2"
PERFORMER "Bobby Bradford - John Carter Quintet"
TITLE "Comin' On"
FILE "Bobby Bradford - John Carter Quintet - Comin' On.flac" WAVE
TRACK 01 AUDIO
TITLE "Comin' On"
PERFORMER "Bobby Bradford - John Carter Quintet"
INDEX 01 00:00:00
TRACK 02 AUDIO
TITLE "Ode to the Flower Maiden"
PERFORMER "Bobby Bradford - John Carter Quintet"
INDEX 00 15:15:00
INDEX 01 15:18:62
TRACK 03 AUDIO
TITLE "Encounter"
PERFORMER "Bobby Bradford - John Carter Quintet"
INDEX 00 25:06:00
INDEX 01 25:09:62
TRACK 04 AUDIO
TITLE "Sunday Afternoon Jazz Society Blues"
PERFORMER "Bobby Bradford - John Carter Quintet"
INDEX 00 41:26:00
INDEX 01 41:29:62
TRACK 05 AUDIO
TITLE "Room 408"
PERFORMER "Bobby Bradford - John Carter Quintet"
INDEX 00 60:00:00
INDEX 01 60:04:62
 
Об альбоме (сборнике)
Clarinetist John Carter and cornetist Bobby Bradford teamed up many times during a 25-year period. Nearly all of their joint recordings were issued under Carter's name, but this CD is an exception. Carter's often intense flights on clarinet served as a contrast to Bradford's mellower sound. What is unusual about this set, which also includes bassist Richard Davis and drummer Andrew Cyrille, is the participation of pianist Don Preston, who often doubles on synthesizer. His synth adds some otherworldly sounds on several of the selections (such as "Encounter") and takes some getting used to. Bradford contributed two of the pieces, while Carter brought in three, including "Sunday Afternoon Jazz Society Blues." The music is advanced, but not as forbidding as it sometimes was from Carter and Bradford, making this one of their more accessible releases.
 
Состав
Bobby Bradford - cornet
John Carter - clarinet
Don Preston - piano & synthesizer
Richard Davis - bass
Andrew Cyrille - drums
Any questions -> support@pro-jazz.com. По всем вопросам пишите -> support@pro-jazz.com
14:35
174
Нет комментариев. Ваш будет первым!