Вы используете незарегистрированную версию компонента "Вкладки"!

Поиск

(Free Jazz, Modern Creative) George Schuller & Schulldogs - Hellbent - 2002, APE (tracks+.cue), lossless

Треклист:
George Schuller & Schulldogs / Hellbent
Жанр: Free Jazz, Modern Creative
Страна-производитель диска: US
Год издания диска: 2002
Издатель (лейбл): Playscape Recordings
Номер по каталогу: PSR#111300
Страна: US
Аудиокодек: APE (*.ape)
Тип рипа: tracks+.cue
Битрейт аудио: lossless
Продолжительность: 71:26
Источник (релизер): nnm.ru
Наличие сканов в содержимом раздачи: да
Треклист:
1 Pumpkins Schuller 15:10
2 The Thaw Schuller 7:29
3 Ripe Schuller 17:19
4 Distant Cousin Schuller 13:23
5 Slightly Round Schuller 11:12
6 Band Vote Schuller 6:50
 
Лог создания рипа
Exact Audio Copy V0.99 prebeta 5 from 4. May 2009
EAC extraction logfile from 1. November 2010, 23:51
George Schuller / Hellbent
Used drive : TSSTcorpDVD+-RW TS-U633A Adapter: 0 ID: 1
Read mode : Secure
Utilize accurate stream : Yes
Defeat audio cache : Yes
Make use of C2 pointers : No
Read offset correction : 6
Overread into Lead-In and Lead-Out : No
Fill up missing offset samples with silence : Yes
Delete leading and trailing silent blocks : No
Null samples used in CRC calculations : Yes
Used interface : Native Win32 interface for Win NT & 2000
Gap handling : Not detected, thus appended to previous track
Used output format : Internal WAV Routines
Sample format : 44.100 Hz; 16 Bit; Stereo
TOC of the extracted CD
Track | Start | Length | Start sector | End sector
---------------------------------------------------------
1 | 0:00.00 | 15:10.55 | 0 | 68304
2 | 15:10.55 | 7:29.60 | 68305 | 102039
3 | 22:40.40 | 17:19.57 | 102040 | 180021
4 | 40:00.22 | 13:23.58 | 180022 | 240304
5 | 53:24.05 | 11:12.32 | 240305 | 290736
6 | 64:36.37 | 6:50.20 | 290737 | 321506
Track 1
Filename C:\_Arc\EAC_Out\01 - Pumpkins.wav
Peak level 85.7 %
Track quality 99.9 %
Copy CRC 121CC21D
Track not present in AccurateRip database
Copy OK
Track 2
Filename C:\_Arc\EAC_Out\02 - The Thaw.wav
Peak level 98.8 %
Track quality 100.0 %
Copy CRC 034A6310
Track not present in AccurateRip database
Copy OK
Track 3
Filename C:\_Arc\EAC_Out\03 - Ripe.wav
Peak level 98.8 %
Track quality 100.0 %
Copy CRC AF24577E
Track not present in AccurateRip database
Copy OK
Track 4
Filename C:\_Arc\EAC_Out\04 - Distant Cousin.wav
Peak level 98.8 %
Track quality 100.0 %
Copy CRC C7749FCE
Track not present in AccurateRip database
Copy OK
Track 5
Filename C:\_Arc\EAC_Out\05 - Slightly Round.wav
Peak level 98.8 %
Track quality 99.9 %
Copy CRC 4C0D8FB1
Track not present in AccurateRip database
Copy OK
Track 6
Filename C:\_Arc\EAC_Out\06 - Band Vote.wav
Suspicious position 0:05:07
Suspicious position 0:05:09
Suspicious position 0:05:12 - 0:05:13
Suspicious position 0:05:17 - 0:05:21
Suspicious position 0:05:23 - 0:05:46
Suspicious position 0:05:50 - 0:06:07
Suspicious position 0:06:49
Peak level 98.8 %
Track quality 95.4 %
Copy CRC 21ED4A13
Track not present in AccurateRip database
Copy finished
None of the tracks are present in the AccurateRip database
There were errors
End of status report
 
Содержание индексной карты (.CUE)
REM GENRE "Contemporary Jazz"
REM DATE 2000
REM DISCID 4710BE06
REM COMMENT "ExactAudioCopy v0.99pb5"
PERFORMER "George Schuller"
TITLE "Hellbent"
FILE "01 - Pumpkins.wav" WAVE
TRACK 01 AUDIO
TITLE "Pumpkins"
PERFORMER "George Schuller"
INDEX 01 00:00:00
FILE "02 - The Thaw.wav" WAVE
TRACK 02 AUDIO
TITLE "The Thaw"
PERFORMER "George Schuller"
INDEX 00 00:00:00
INDEX 01 00:03:40
FILE "03 - Ripe.wav" WAVE
TRACK 03 AUDIO
TITLE "Ripe"
PERFORMER "George Schuller"
INDEX 01 00:00:00
FILE "04 - Distant Cousin.wav" WAVE
TRACK 04 AUDIO
TITLE "Distant Cousin"
PERFORMER "George Schuller"
INDEX 00 00:00:00
INDEX 01 00:03:45
FILE "05 - Slightly Round.wav" WAVE
TRACK 05 AUDIO
TITLE "Slightly Round"
PERFORMER "George Schuller"
INDEX 00 00:00:00
INDEX 01 00:03:45
FILE "06 - Band Vote.wav" WAVE
TRACK 06 AUDIO
TITLE "Band Vote"
PERFORMER "George Schuller"
INDEX 00 00:00:00
INDEX 01 00:03:45
 
Лог проверки качества
d:\>d:\aucdtect -d/-m0 d:\zzz\*.wav
auCDtect: CD records authenticity detector, version 0.8.2
Copyright (c) 2004 Oleg Berngardt. All rights reserved.
Copyright (c) 2004 Alexander Djourik. All rights reserved.
------------------------------------------------------------
Processing file: [01. Pumpkins.wav]
------------------------------------------------------------
This track looks like CDDA with probability 100%
------------------------------------------------------------
Processing file: [02. The Thaw.wav]
------------------------------------------------------------
This track looks like CDDA with probability 100%
------------------------------------------------------------
Processing file: [03. Ripe.wav]
------------------------------------------------------------
This track looks like CDDA with probability 100%
------------------------------------------------------------
Processing file: [04. Distant Cousin.wav]
------------------------------------------------------------
This track looks like CDDA with probability 100%
------------------------------------------------------------
Processing file: [05. Slightly Round.wav]
------------------------------------------------------------
This track looks like CDDA with probability 100%
------------------------------------------------------------
Processing file: [06. Band Vote.wav]
------------------------------------------------------------
This track looks like CDDA with probability 100%
------------------------------------------------------------
Final Conclusion:
------------------------------------------------------------
These tracks looks like CDDA with probability 100%
Доп. информация:
 
AMG Review
Recorded live at a New Mexico venue, drummer George Schuller leads the charge through a set featuring two of the top improvising saxophonists in modern jazz, whereas the drummer's brother, bassist Ed Schuller, operates the bottom end in pronounced fashion. The band launches the festivities on Hellbent with the 15-minute piece "Pumpkins." Here, alto saxophonist Tim Berne commences with gut-wrenching, upper register squeaks and squeals, as the group eventually coalesces for sequences of climactically oriented interplay. In fact, Schuller may have composed this piece with Berne in mind -- witness the similarities to the saxophonist's long running Bloodcount ensembles. Either way, the quartet interrogates free bop, bouncy rhythms, and subtle dynamics amid a semi-structured mode of operations. The musicians pursue introspective dialogue while also gravitating towards intensely acrobatic exchanges and heated flurries. However, tenor saxophonist Tony Malaby and Berne seem at odds during the opening moments of the extended work, "Ripe." But one of the highlights of this affair features Schuller's abstract spin on Thelonious Monk's "Evidence" -- wherein the band navigates complex time signatures amid cleverly enacted bop escapades. Overall, this is a strong outing, although some of the extended works may have translated better during the live show, as the soloists expend quite a bit of time developing themes amid moments that lack cohesion or synergy. Otherwise, a solid effort!
 
Состав
Tim Berne Sax (Alto)
William Gamble Photography
David Locke Mastering
Tony Malaby Sax (Tenor)
Michael Musillami Executive Producer
Mario Pavone Cover Photo
Steven J. Schmidt Engineer
Ed Schuller Bass
George Schuller Bells, Drums, Editing, Producer, Shaker, Whistle (Human)
По всем вопросам пишите личное сообщение пользователю M0p94ok.
18:08
161
Нет комментариев. Ваш будет первым!