Вы используете незарегистрированную версию компонента "Вкладки"!

Поиск

(Free Jazz, Modern Composition, Innova) [CD] Todd Hammes & His Tool And Drum Ensemble - Music For Percussion (Mostly) - 2007, FLAC (tracks+.cue), lossless

(Free Jazz, Modern Composition, Innova) [CD] Todd Hammes & His Tool And Drum Ensemble - Music For Percussion (Mostly) - 2007, FLAC (tracks+.cue), lossless
Треклист:
Todd Hammes & His Tool And Drum Ensemble / Music For Percussion (Mostly)
Жанр: Free Jazz, Modern Composition, Innova
Носитель: CD
Страна-производитель диска: US
Год издания: 2007
Издатель (лейбл): Innova
Номер по каталогу: Innova 682
Страна: US
Аудиокодек: FLAC (*.flac)
Тип рипа: tracks+.cue
Битрейт аудио: lossless
Продолжительность: 51:10
Источник (релизер): свой фирменный диск
Наличие сканов в содержимом раздачи:
Треклист:
Four Movements From Remembering (1997-2002)
1. Attract And Repel 1:40
2. Laughter And Triple Duet 3:13
3. Sand Box Solo 2:47
4. First Kiss 2:40
5. Kalimba On Marimba (2005) 3:28
6. 14+8: A Mood (2000) 3:21
7. Eh Wa Ba Wa Jo (2003) 2:55
8. Marimba, Pan And Tabla (2005) 8:24
9. Speedway Boulevard: Tucson (2005) 11:05
10. Four Steps (2007) 4:09
11. Inconsistencies, Octet For Percussion Ensemble (1993) 4:50
12. My Hunter Of Dragonflies (2002-04) 2:23
 
Лог создания рипа
Exact Audio Copy V1.0 beta 3 from 29. August 2011
EAC extraction logfile from 3. January 2014, 13:58
Todd Hammes & His Tool And Drum Ensemble / Music For Percussion (Mostly)
Used drive : PIONEER DVD-RW DVR-115D Adapter: 0 ID: 0
Read mode : Secure
Utilize accurate stream : Yes
Defeat audio cache : Yes
Make use of C2 pointers : No
Read offset correction : 48
Overread into Lead-In and Lead-Out : No
Fill up missing offset samples with silence : Yes
Delete leading and trailing silent blocks : No
Null samples used in CRC calculations : Yes
Used interface : Installed external ASPI interface
Gap handling : Appended to previous track
Used output format : User Defined Encoder
Selected bitrate : 896 kBit/s
Quality : High
Add ID3 tag : No
Command line compressor : C:\Program Files\Exact Audio Copy\FLAC\FLAC.EXE
Additional command line options : -6 -V -T "ARTIST=%artist%" -T "TITLE=%title%" -T "ALBUM=%albumtitle%" -T "DATE=%year%" -T "TRACKNUMBER=%tracknr%" -T "GENRE=%genre%" -T "COMMENT=%comment%" -T "BAND=%albuminterpret%" -T "COMPOSER=%composer%" %haslyrics%--tag-from-file=LYRICS="%lyricsfile%"%haslyrics% -T "DISCNUMBER=%cdnumber%" -T "TOTALDISCS=%totalcds%" -T "TOTALTRACKS=%numtracks%" %hascover%--picture="%coverfile%"%hascover% %source% -o %dest%
TOC of the extracted CD
Track | Start | Length | Start sector | End sector
---------------------------------------------------------
1 | 0:00.00 | 1:39.53 | 0 | 7477
2 | 1:39.53 | 3:12.60 | 7478 | 21937
3 | 4:52.38 | 2:47.25 | 21938 | 34487
4 | 7:39.63 | 2:40.47 | 34488 | 46534
5 | 10:20.35 | 3:30.09 | 46535 | 62293
6 | 13:50.44 | 3:23.21 | 62294 | 77539
7 | 17:13.65 | 2:57.06 | 77540 | 90820
8 | 20:10.71 | 8:26.04 | 90821 | 128774
9 | 28:37.00 | 11:07.47 | 128775 | 178846
10 | 39:44.47 | 4:10.41 | 178847 | 197637
11 | 43:55.13 | 4:52.13 | 197638 | 219550
12 | 48:47.26 | 2:22.64 | 219551 | 230264
Track 1
Filename D:\zzz\01 - Four Movements From Remembering- Attract And Repel.wav
Pre-gap length 0:00:02.00
Peak level 96.7 %
Extraction speed 3.5 X
Track quality 100.0 %
Test CRC 835BD03C
Copy CRC 835BD03C
Track not present in AccurateRip database
Copy OK
Track 2
Filename D:\zzz\02 - Four Movements From Remembering- Laughter And Triple Duet.wav
Peak level 93.6 %
Extraction speed 4.3 X
Track quality 100.0 %
Test CRC B200E4F5
Copy CRC B200E4F5
Track not present in AccurateRip database
Copy OK
Track 3
Filename D:\zzz\03 - Four Movements From Remembering- Sand Box Solo.wav
Peak level 100.0 %
Extraction speed 3.9 X
Track quality 99.9 %
Test CRC 18AC3F76
Copy CRC 18AC3F76
Track not present in AccurateRip database
Copy OK
Track 4
Filename D:\zzz\04 - Four Movements From Remembering- First Kiss.wav
Peak level 79.5 %
Extraction speed 4.8 X
Track quality 100.0 %
Test CRC EC22A84C
Copy CRC EC22A84C
Track not present in AccurateRip database
Copy OK
Track 5
Filename D:\zzz\05 - Kalimba On Marimba.wav
Peak level 93.4 %
Extraction speed 4.6 X
Track quality 99.9 %
Test CRC CDD46465
Copy CRC CDD46465
Track not present in AccurateRip database
Copy OK
Track 6
Filename D:\zzz\06 - 14+8- A Mood.wav
Pre-gap length 0:00:02.00
Peak level 100.0 %
Extraction speed 5.5 X
Track quality 100.0 %
Test CRC 6E903447
Copy CRC 6E903447
Track not present in AccurateRip database
Copy OK
Track 7
Filename D:\zzz\07 - Eh Wa Ba Wa Jo.wav
Pre-gap length 0:00:02.00
Peak level 100.0 %
Extraction speed 5.6 X
Track quality 100.0 %
Test CRC E6DF6030
Copy CRC E6DF6030
Track not present in AccurateRip database
Copy OK
Track 8
Filename D:\zzz\08 - Marimba, Pan And Tabla.wav
Pre-gap length 0:00:02.00
Peak level 100.0 %
Extraction speed 6.8 X
Track quality 100.0 %
Test CRC FD18056B
Copy CRC FD18056B
Track not present in AccurateRip database
Copy OK
Track 9
Filename D:\zzz\09 - Speedway Boulevard- Tucson.wav
Pre-gap length 0:00:02.00
Peak level 100.0 %
Extraction speed 7.2 X
Track quality 99.9 %
Test CRC 6AD8A24D
Copy CRC 6AD8A24D
Track not present in AccurateRip database
Copy OK
Track 10
Filename D:\zzz\10 - Four Steps.wav
Pre-gap length 0:00:02.00
Peak level 100.0 %
Extraction speed 7.4 X
Track quality 100.0 %
Test CRC 46EE6DDC
Copy CRC 46EE6DDC
Track not present in AccurateRip database
Copy OK
Track 11
Filename D:\zzz\11 - Inconsistencies.wav
Pre-gap length 0:00:02.00
Peak level 100.0 %
Extraction speed 7.1 X
Track quality 99.9 %
Test CRC BF7D82C6
Copy CRC BF7D82C6
Track not present in AccurateRip database
Copy OK
Track 12
Filename D:\zzz\12 - My Hunter Of Dragonflies.wav
Pre-gap length 0:00:02.00
Peak level 100.0 %
Extraction speed 7.1 X
Track quality 100.0 %
Test CRC 491DB21C
Copy CRC 491DB21C
Track not present in AccurateRip database
Copy OK
None of the tracks are present in the AccurateRip database
No errors occurred
End of status report
==== Log checksum D48E3D0298A705EDA967AA94EC5CAC3A06D42F3F97292C02BE374FA4622ADD4B ====
 
Содержание индексной карты (.CUE)
REM GENRE "Modern Composition"
REM DATE 2007
REM DISCID 910BFE0C
REM COMMENT "ExactAudioCopy v1.0b3"
PERFORMER "Todd Hammes & His Tool And Drum Ensemble"
TITLE "Music For Percussion (Mostly)"
FILE "01 - Four Movements From Remembering- Attract And Repel.wav" WAVE
TRACK 01 AUDIO
TITLE "Four Movements From Remembering: Attract And Repel"
PERFORMER "Todd Hammes & His Tool And Drum Ensemble"
INDEX 01 00:00:00
FILE "02 - Four Movements From Remembering- Laughter And Triple Duet.wav" WAVE
TRACK 02 AUDIO
TITLE "Four Movements From Remembering: Laughter And Triple Duet"
PERFORMER "Todd Hammes & His Tool And Drum Ensemble"
INDEX 01 00:00:00
FILE "03 - Four Movements From Remembering- Sand Box Solo.wav" WAVE
TRACK 03 AUDIO
TITLE "Four Movements From Remembering: Sand Box Solo"
PERFORMER "Todd Hammes & His Tool And Drum Ensemble"
INDEX 01 00:00:00
FILE "04 - Four Movements From Remembering- First Kiss.wav" WAVE
TRACK 04 AUDIO
TITLE "Four Movements From Remembering: First Kiss"
PERFORMER "Todd Hammes & His Tool And Drum Ensemble"
INDEX 01 00:00:00
FILE "05 - Kalimba On Marimba.wav" WAVE
TRACK 05 AUDIO
TITLE "Kalimba On Marimba"
PERFORMER "Todd Hammes & His Tool And Drum Ensemble"
INDEX 01 00:00:00
TRACK 06 AUDIO
TITLE "14+8: A Mood"
PERFORMER "Todd Hammes & His Tool And Drum Ensemble"
INDEX 00 03:28:09
FILE "06 - 14+8- A Mood.wav" WAVE
INDEX 01 00:00:00
TRACK 07 AUDIO
TITLE "Eh Wa Ba Wa Jo"
PERFORMER "Todd Hammes & His Tool And Drum Ensemble"
INDEX 00 03:21:21
FILE "07 - Eh Wa Ba Wa Jo.wav" WAVE
INDEX 01 00:00:00
TRACK 08 AUDIO
TITLE "Marimba, Pan And Tabla"
PERFORMER "Todd Hammes & His Tool And Drum Ensemble"
INDEX 00 02:55:06
FILE "08 - Marimba, Pan And Tabla.wav" WAVE
INDEX 01 00:00:00
TRACK 09 AUDIO
TITLE "Speedway Boulevard: Tucson"
PERFORMER "Todd Hammes & His Tool And Drum Ensemble"
INDEX 00 08:24:04
FILE "09 - Speedway Boulevard- Tucson.wav" WAVE
INDEX 01 00:00:00
TRACK 10 AUDIO
TITLE "Four Steps"
PERFORMER "Todd Hammes & His Tool And Drum Ensemble"
INDEX 00 11:05:47
FILE "10 - Four Steps.wav" WAVE
INDEX 01 00:00:00
TRACK 11 AUDIO
TITLE "Inconsistencies"
PERFORMER "Todd Hammes & His Tool And Drum Ensemble"
INDEX 00 04:08:41
FILE "11 - Inconsistencies.wav" WAVE
INDEX 01 00:00:00
TRACK 12 AUDIO
TITLE "My Hunter Of Dragonflies"
PERFORMER "Todd Hammes & His Tool And Drum Ensemble"
INDEX 00 04:50:13
FILE "12 - My Hunter Of Dragonflies.wav" WAVE
INDEX 01 00:00:00
 
Лог проверки качества
d:\>d:\aucdtect -d/-m0 d:\zzz\*.wav
auCDtect: CD records authenticity detector, version 0.8.2
Copyright (c) 2004 Oleg Berngardt. All rights reserved.
Copyright (c) 2004 Alexander Djourik. All rights reserved.
------------------------------------------------------------
Processing file: [01. Four Movements From Remembering- Attract And Repel.wav]
------------------------------------------------------------
This track looks like CDDA with probability 100%
------------------------------------------------------------
Processing file: [02. Four Movements From Remembering- Laughter And Triple Duet.wav]
------------------------------------------------------------
This track looks like CDDA with probability 100%
------------------------------------------------------------
Processing file: [03. Four Movements From Remembering- Sand Box Solo.wav]
------------------------------------------------------------
This track looks like CDDA with probability 100%
------------------------------------------------------------
Processing file: [04. Four Movements From Remembering- First Kiss.wav]
------------------------------------------------------------
This track looks like CDDA with probability 100%
------------------------------------------------------------
Processing file: [05. Kalimba On Marimba.wav]
------------------------------------------------------------
This track looks like CDDA with probability 99%
------------------------------------------------------------
Processing file: [06. 14+8- A Mood.wav]
------------------------------------------------------------
This track looks like CDDA with probability 100%
------------------------------------------------------------
Processing file: [07. Eh Wa Ba Wa Jo.wav]
------------------------------------------------------------
This track looks like CDDA with probability 99%
------------------------------------------------------------
Processing file: [08. Marimba, Pan And Tabla.wav]
------------------------------------------------------------
This track looks like CDDA with probability 100%
------------------------------------------------------------
Processing file: [09. Speedway Boulevard- Tucson.wav]
------------------------------------------------------------
This track looks like CDDA with probability 100%
------------------------------------------------------------
Processing file: [10. Four Steps.wav]
------------------------------------------------------------
This track looks like CDDA with probability 100%
------------------------------------------------------------
Processing file: [11. Inconsistencies.wav]
------------------------------------------------------------
This track looks like CDDA with probability 100%
------------------------------------------------------------
Processing file: [12. My Hunter Of Dragonflies.wav]
------------------------------------------------------------
This track looks like CDDA with probability 100%
------------------------------------------------------------
Final Conclusion:
------------------------------------------------------------
These tracks looks like CDDA with probability 100%
Доп. информация:
 
Album Info & Innova Press Release
All compositions by Todd Hammes
Photos by Todd Hammes
Tracks 1-4 were recorded on location by James Ball, Tucson AZ
Tracks 5-12 were recorded by Pete Fine at Planet of the Tapes Studios, Tucson AZ
Mastered by Mike Levy at 11:11 Studios, Tucson AZ
innova is supported by an endowment from the McKnight Foundation.
Philip Blackburn: director, design
Chris Campbell: operations
Music for Percussion (mostly) contains a collection of compositions by percussionist and composer Todd Hammes. Solo to octet, this recording represents the new breed of American percussionist. Composing and improvising. Classically Western and global. Powerful yet sublime.
The Tool and Drum Ensemble is a collective of percussionists (mostly) who have been assembled to realize the music of Todd Hammes. These performers are classically trained chamber musicians who are chosen to contribute their own talents and identities to the music. In the tradition of the percussion groups Nexus and Black Earth and composers such as John Cage and Lou Harrison. The music moves from intimate to bold, sublime to fun.
Todd Hammes has a clearly developed compositional style. Applying modal shifting of the bass with poly-metric concepts, Todd never loses sight of the feeling of the music and what it conveys.
Eg: The feeling of hope and loss in My Hunter of Dragonflies
Eg: The scurrying of desert creatures and the frenetic energy of the city in Speedway Boulevard: Tucson
Eg: The subtle exploration of memory in Remembering.
Eg: The decadent temper tantrum that is 14+8: A Mood
Eg: The raw power of Inconsistencies.
However, there is the playfulness and joy of Eh Wa Ba Wa Jo and the virtuosic declaration of 4 Steps. And then there is Kalimba on Marimba which exists purely for the “love of the sound”. Then there is the plainly named Marimba, Pan and Tabla; a bold melding of a Barber-esque chorale with an virtuosic North Indian tabla drumming solo.
 
Состав
Norman Weinberg: xylophone (1-4,6), single tenor steel drum/marimba (8)
Doug Smith: marimba (1-4)
Todd Hammes: marimba and percussion (1-4), marimba (5), percussion (6), marimba/conga/axatse (7), tabla (8), vibraphone/tom toms/cymbals/marimba/log drum tom toms/percussion (9), frame drum (10), percussion (12)
Mac Intosh: piano (6)
John Snavely: bass clarinet (9)
Todd Hammes & His Tool And Drum Ensemble (11)
Brian Harris: tom tom solos (11)
По всем вопросам пишите личное сообщение пользователю M0p94ok.
22:32
156
Нет комментариев. Ваш будет первым!