Вы используете незарегистрированную версию компонента "Вкладки"!

Поиск

(Free Jazz, Modern Classical, FMR) BBC Concert Orchestra, Brian Irvine Ensemble, Paul Dunmall - Montana Strange - 2011, FLAC (tracks+.cue), lossless

(Free Jazz, Modern Classical, FMR) BBC Concert Orchestra, Brian Irvine Ensemble, Paul Dunmall - Montana Strange - 2011, FLAC (tracks+.cue), lossless
Треклист:
BBC Concert Orchestra, Brian Irvine Ensemble, Paul Dunmall / Montana Strange
Жанр: Free Jazz, Modern Classical, FMR
Страна-производитель диска: UK
Год издания: 2011
Издатель (лейбл): FMR Records
Номер по каталогу: FMRCD315-0911
Страна: UK
Аудиокодек: FLAC (*.flac)
Тип рипа: tracks+.cue
Битрейт аудио: lossless
Продолжительность: 36:38
Источник (релизер): свой фирменный диск
Наличие сканов в содержимом раздачи:
Треклист:
Montana Strange - For Symphony Orchestra, Ensemble And Improvising Saxophonist In Four Movements
1 Dick Laurent Is Dead / Candy Coloured Clown 15:06
2 A Dream Of Dark And Troubled Things 4:19
3 Just Cut 'Em Up Like Regular Chickens 11:30
-
4 Dublin Piece 5:18
 
Лог создания рипа
Exact Audio Copy V1.0 beta 3 from 29. August 2011
EAC extraction logfile from 19. August 2013, 21:43
BBC Concert Orchestra, Brian Irvine Ensemble, Paul Dunmall / Montana Strange
Used drive : PIONEER DVD-RW DVR-115D Adapter: 0 ID: 0
Read mode : Secure
Utilize accurate stream : Yes
Defeat audio cache : Yes
Make use of C2 pointers : No
Read offset correction : 48
Overread into Lead-In and Lead-Out : No
Fill up missing offset samples with silence : Yes
Delete leading and trailing silent blocks : No
Null samples used in CRC calculations : Yes
Used interface : Installed external ASPI interface
Gap handling : Appended to previous track
Used output format : User Defined Encoder
Selected bitrate : 896 kBit/s
Quality : High
Add ID3 tag : No
Command line compressor : C:\Program Files\Exact Audio Copy\FLAC\FLAC.EXE
Additional command line options : -6 -V -T "ARTIST=%artist%" -T "TITLE=%title%" -T "ALBUM=%albumtitle%" -T "DATE=%year%" -T "TRACKNUMBER=%tracknr%" -T "GENRE=%genre%" -T "COMMENT=%comment%" -T "BAND=%albuminterpret%" -T "COMPOSER=%composer%" %haslyrics%--tag-from-file=LYRICS="%lyricsfile%"%haslyrics% -T "DISCNUMBER=%cdnumber%" -T "TOTALDISCS=%totalcds%" -T "TOTALTRACKS=%numtracks%" %hascover%--picture="%coverfile%"%hascover% %source% -o %dest%
TOC of the extracted CD
Track | Start | Length | Start sector | End sector
---------------------------------------------------------
1 | 0:00.00 | 15:08.18 | 0 | 68117
2 | 15:08.18 | 4:41.08 | 68118 | 89200
3 | 19:49.26 | 11:31.36 | 89201 | 141061
4 | 31:20.62 | 5:17.47 | 141062 | 164883
Track 1
Filename D:\zzz\01 - Dick Laurent Is Dead , Candy Coloured Clown.wav
Pre-gap length 0:00:02.00
Peak level 100.0 %
Extraction speed 5.4 X
Track quality 100.0 %
Test CRC C02EA7D8
Copy CRC C02EA7D8
Track not present in AccurateRip database
Copy OK
Track 2
Filename D:\zzz\02 - A Dream Of Dark And Troubled Things.wav
Pre-gap length 0:00:02.00
Peak level 90.5 %
Extraction speed 5.9 X
Track quality 100.0 %
Test CRC 6B5486C6
Copy CRC 6B5486C6
Track not present in AccurateRip database
Copy OK
Track 3
Filename D:\zzz\03 - Just Cut 'Em Up Like Regular Chickens.wav
Pre-gap length 0:00:02.00
Peak level 99.1 %
Extraction speed 7.1 X
Track quality 100.0 %
Test CRC 39C6DB70
Copy CRC 39C6DB70
Track not present in AccurateRip database
Copy OK
Track 4
Filename D:\zzz\04 - Dublin Piece- Drowning In The Sea Of Your Dreams.wav
Pre-gap length 0:00:02.00
Peak level 60.4 %
Extraction speed 7.2 X
Track quality 100.0 %
Test CRC 3465A95C
Copy CRC 3465A95C
Track not present in AccurateRip database
Copy OK
None of the tracks are present in the AccurateRip database
No errors occurred
End of status report
==== Log checksum EFA49870A0D9C0D1D13CCCD9105767C52F3EA9DFAF0AACDAA77BD4CB9D695F15 ====
 
Содержание индексной карты (.CUE)
REM GENRE "Modern Classical"
REM DATE 2011
REM DISCID 2B089604
REM COMMENT "ExactAudioCopy v1.0b3"
PERFORMER "BBC Concert Orchestra, Brian Irvine Ensemble, Paul Dunmall"
TITLE "Montana Strange"
FILE "01 - Dick Laurent Is Dead , Candy Coloured Clown.wav" WAVE
TRACK 01 AUDIO
TITLE "Dick Laurent Is Dead / Candy Coloured Clown"
PERFORMER "BBC Concert Orchestra, Brian Irvine Ensemble, Paul Dunmall"
INDEX 01 00:00:00
TRACK 02 AUDIO
TITLE "A Dream Of Dark And Troubled Things"
PERFORMER "BBC Concert Orchestra, Brian Irvine Ensemble, Paul Dunmall"
INDEX 00 15:06:18
FILE "02 - A Dream Of Dark And Troubled Things.wav" WAVE
INDEX 01 00:00:00
TRACK 03 AUDIO
TITLE "Just Cut 'Em Up Like Regular Chickens"
PERFORMER "BBC Concert Orchestra, Brian Irvine Ensemble, Paul Dunmall"
INDEX 00 04:39:08
FILE "03 - Just Cut 'Em Up Like Regular Chickens.wav" WAVE
INDEX 01 00:00:00
TRACK 04 AUDIO
TITLE "Dublin Piece: Drowning In The Sea Of Your Dreams"
PERFORMER "BBC Concert Orchestra, Brian Irvine Ensemble, Paul Dunmall"
INDEX 00 11:29:36
FILE "04 - Dublin Piece- Drowning In The Sea Of Your Dreams.wav" WAVE
INDEX 01 00:00:00
 
Лог проверки качества
d:\>d:\aucdtect -d/-m0 d:\zzz\*.wav
auCDtect: CD records authenticity detector, version 0.8.2
Copyright (c) 2004 Oleg Berngardt. All rights reserved.
Copyright (c) 2004 Alexander Djourik. All rights reserved.
------------------------------------------------------------
Processing file: [01. Dick Laurent Is Dead - Candy Coloured Clown.wav]
------------------------------------------------------------
Could not qualify the source of this track.
------------------------------------------------------------
Processing file: [02. A Dream Of Dark And Troubled Things.wav]
------------------------------------------------------------
Could not qualify the source of this track.
------------------------------------------------------------
Processing file: [03. Just Cut 'Em Up Like Regular Chickens.wav]
------------------------------------------------------------
This track looks like CDDA with probability 86%
------------------------------------------------------------
Processing file: [04. Dublin Piece- Drowning In The Sea Of Your Dreams.wav]
------------------------------------------------------------
This track looks like CDDA with probability 100%
------------------------------------------------------------
Final Conclusion:
------------------------------------------------------------
These tracks looks like CDDA with probability 100%
 
Состав
Accordion, Keyboards – Michael Keeney (tracks: 1 to 3)
Cello – Scott Heron (2) (tracks: 1 to 3)
Conductor [Ensemble] – Brian Irvine (tracks: 1 to 3)
Conductor [Orchestra] – Colman Pearce (tracks: 4), Robert Zeigler (tracks: 1 to 3)
Electric Bass – Phil Smyth (tracks: 1 to 3)
Electric Guitar – Bill Campbell (8) (tracks: 1 to 3)
Ensemble – Brian Irvine Orchestra (tracks: 1 to 3)
Orchestra – BBC Concert Orchestra (tracks: 1 to 3), RTE National Symphony Orchestra (tracks: 4)
Percussion, Computer – Andrew Lavery (tracks: 1 to 3)
Saxophone – Paul Dunmall (tracks: 1 to 3)
Saxophone [Saxophones], Clarinet [Clarinets] – Lewis Smith (4) (tracks: 1 to 3), Philip Lavery (tracks: 1 to 3), Richard Mawhinney (tracks: 1 to 3)
Soprano Saxophone – Paul Dunmall (tracks: 4)
Trombone – Aidan Hughes (2) (tracks: 1 to 3)
Trumpet – Alasdair Wallace (tracks: 1 to 3)
Turntables – Steve Noble (tracks: 1 to 3)
Violin – John Fitzpatrick (tracks: 1 to 3)
Tracks 1 to 3 recorded at Ulster Hall, Belfast, February 2004
Track 4 recorded at the National Concert Hall, Dublin, 16/01/07
Any questions -> support@pro-jazz.com. По всем вопросам пишите -> support@pro-jazz.com
17:20
110
Нет комментариев. Ваш будет первым!