Вы используете незарегистрированную версию компонента "Вкладки"!

Поиск

(Free Jazz) Michael Marcus Trio - Soulifications - 2006, FLAC (image+.cue), lossless

(Free Jazz) Michael Marcus Trio - Soulifications - 2006, FLAC (image+.cue), lossless
Треклист:
Michael Marcus Trio / Soulifications
Жанр: Free Jazz
Страна-производитель диска: Italy
Год издания диска: 2006
Издатель (лейбл): Soul Note
Номер по каталогу: 121473-2
Аудиокодек: FLAC (*.flac)
Тип рипа: image+.cue
Битрейт аудио: lossless
Продолжительность: 59:15
Источник (релизер): cd
Наличие сканов в содержимом раздачи: нет
Треклист:
1 Harmonious Beautious 8:09
2 The Iron Horse 7:54
3 News from Sedna 12:55
4 Road Dogg 4:03
5 Soulifications 8:04
6 Talk-Walk 11:00
7 Garden of the Clouds 7:07
 
Лог создания рипа
Exact Audio Copy V1.0 beta 2 from 29. April 2011
EAC extraction logfile from 16. October 2011, 21:59
Michael Marcus Trio / Soulifications
Used drive : Optiarc DVD RW AD-7170A Adapter: 0 ID: 0
Read mode : Secure
Utilize accurate stream : Yes
Defeat audio cache : Yes
Make use of C2 pointers : No
Read offset correction : 48
Overread into Lead-In and Lead-Out : No
Fill up missing offset samples with silence : Yes
Delete leading and trailing silent blocks : No
Null samples used in CRC calculations : Yes
Used interface : Native Win32 interface for Win NT & 2000
Used output format : User Defined Encoder
Selected bitrate : 320 kBit/s
Quality : High
Add ID3 tag : No
Command line compressor : C:\Program Files\Exact Audio Copy\Flac\flac.exe
Additional command line options : -V -8 -T "Date=%year%" -T "Genre=%genre%" %source%
TOC of the extracted CD
Track | Start | Length | Start sector | End sector
---------------------------------------------------------
1 | 0:00.00 | 8:09.49 | 0 | 36723
2 | 8:09.49 | 7:54.22 | 36724 | 72295
3 | 16:03.71 | 12:55.08 | 72296 | 130428
4 | 28:59.04 | 4:03.65 | 130429 | 148718
5 | 33:02.69 | 8:04.54 | 148719 | 185072
6 | 41:07.48 | 11:00.22 | 185073 | 234594
7 | 52:07.70 | 7:07.11 | 234595 | 266630
Range status and errors
Selected range
Filename C:\EAC\Downloads\Michael Marcus Trio - Soulifications.wav
Peak level 97.7 %
Extraction speed 2.1 X
Range quality 99.9 %
Test CRC 9DA0AA41
Copy CRC 9DA0AA41
Copy OK
No errors occurred
AccurateRip summary
Track 1 accurately ripped (confidence 1) [67C5B373] (AR v1)
Track 2 accurately ripped (confidence 1) [C245551F] (AR v1)
Track 3 accurately ripped (confidence 1) [5FCDBC91] (AR v1)
Track 4 accurately ripped (confidence 1) [BED67591] (AR v1)
Track 5 accurately ripped (confidence 1) [EA945FE6] (AR v1)
Track 6 accurately ripped (confidence 1) [8B8A0FB8] (AR v1)
Track 7 accurately ripped (confidence 1) [FC90C765] (AR v1)
All tracks accurately ripped
End of status report
==== Log checksum 2A94116522EFCD85B5F4F28BDC0591BD66A93B5083C94C560A9B220412DC3853 ====
 
Содержание индексной карты (.CUE)
REM GENRE Jazz
REM DATE 2006
REM DISCID 6B0DE307
REM COMMENT "ExactAudioCopy v1.0b2"
PERFORMER "Michael Marcus Trio"
TITLE "Soulifications"
FILE "Michael Marcus Trio - Soulifications.flac" WAVE
TRACK 01 AUDIO
TITLE "Harmonious Beautious"
PERFORMER "Michael Marcus Trio"
ISRC 000000000000
FLAGS DCP
INDEX 01 00:00:00
TRACK 02 AUDIO
TITLE "The Iron Horse"
PERFORMER "Michael Marcus Trio"
ISRC 000000000000
FLAGS DCP
INDEX 01 08:09:49
TRACK 03 AUDIO
TITLE "News From Sedna"
PERFORMER "Michael Marcus Trio"
ISRC 000000000000
FLAGS DCP
INDEX 01 16:03:71
TRACK 04 AUDIO
TITLE "Road Dogg"
PERFORMER "Michael Marcus Trio"
ISRC 000000000000
FLAGS DCP
INDEX 01 28:59:04
TRACK 05 AUDIO
TITLE "Soulifications"
PERFORMER "Michael Marcus Trio"
ISRC 000000000000
FLAGS DCP
INDEX 01 33:02:69
TRACK 06 AUDIO
TITLE "Talk-Walk"
PERFORMER "Michael Marcus Trio"
ISRC 000000000000
FLAGS DCP
INDEX 01 41:07:48
TRACK 07 AUDIO
TITLE "Garden of the Clouds"
PERFORMER "Michael Marcus Trio"
ISRC 000000000000
FLAGS DCP
INDEX 01 52:07:70
 
Состав
Michael Marcus Tenor Sax, Saxello, Bb Clarinet
Tarus Mateen Bass, Electric Bass, Vocals
Nasheet Waits Drums
Any questions -> support@pro-jazz.com. По всем вопросам пишите -> support@pro-jazz.com
17:34
135
Нет комментариев. Ваш будет первым!