Вы используете незарегистрированную версию компонента "Вкладки"!

Поиск

(Free Jazz) Marzette Watts - Marzette and Company - 2001, FLAC (tracks+.cue), lossless

Треклист:
Marzette Watts - Marzette and Company
Жанр: Free Jazz
Год выпуска диска: 2001
Производитель диска: ESP Disk (ESP1044)
Источник: вафли (djacks29)
Аудио кодек: FLAC
Тип рипа: tracks+.cue
Битрейт аудио: lossless
Продолжительность: 37:16
Треклист:
1 Backdrop For Urban Revolution 17:52
2 Ia 6:01
3 Geno 13:18
Recorded NYC, December 8, 1966
Clifford Thornton trombone, cornet
Marzette Watts bass clarinet, tenor & soprano saxophones
Byard Lancaster alto saxophone, flute, bass clarinet
Karl Berger vibraphone
Sonny Sharrock guitar
Henry Grimes bass
Juney Booth bass (1)
J.C. Moses drums
 
Отчёт EAC
X Lossless Decoder version 20101027 (123.6)
XLD extraction logfile from 2010-10-27 08:26:04 -0400
Marzette Watts and Company / Marzette Watts and Company
Used drive : MATSHITA DVD-R UJ-857E (revision ZF1E)
Use cdparanoia mode : YES (CDParanoia III 10.2 engine)
Disable audio cache : OK for the drive with cache less than 2750KB
Make use of C2 pointers : NO
Read offset correction : 102
Max retry count : 100
Gap status : Analyzed, Appended
TOC of the extracted CD
Track | Start | Length | Start sector | End sector
---------------------------------------------------------
1 | 00:00:00 | 17:54:00 | 0 | 80549
2 | 17:54:00 | 06:02:60 | 80550 | 107759
3 | 23:56:60 | 13:17:37 | 107760 | 167571
All Tracks
Album gain : -0.76 dB
Peak : 0.825348
Track 01
Filename : /Volumes/Time Machine Backups/FLACS/01 - Backdrop for Urban Revolution.flac
/Volumes/Time Machine Backups/FLACS/01 - Backdrop for Urban Revolution.mp3
Pre-gap length : 00:02:00
Track gain : -0.56 dB
Peak : 0.824921
CRC32 hash (test run) : 1ED1A8DC
CRC32 hash : 1ED1A8DC
CRC32 hash (skip zero) : C4698F03
AccurateRip signature : 4CC9C782
->Accurately ripped! (confidence 1)
Statistics
Read error : 0
Skipped (treated as error) : 0
Edge jitter error (maybe fixed) : 0
Atom jitter error (maybe fixed) : 0
Drift error (maybe fixed) : 0
Dropped bytes error (maybe fixed) : 0
Duplicated bytes error (maybe fixed) : 0
Inconsistency in error sectors : 0
Track 02
Filename : /Volumes/Time Machine Backups/FLACS/02 - Ia.flac
/Volumes/Time Machine Backups/FLACS/02 - Ia.mp3
Pre-gap length : 00:04:03
Track gain : -1.99 dB
Peak : 0.825348
CRC32 hash (test run) : E2145A39
CRC32 hash : E2145A39
CRC32 hash (skip zero) : 0EA02CC3
AccurateRip signature : 8D3F4822
->Accurately ripped! (confidence 1)
Statistics
Read error : 0
Skipped (treated as error) : 0
Edge jitter error (maybe fixed) : 0
Atom jitter error (maybe fixed) : 0
Drift error (maybe fixed) : 0
Dropped bytes error (maybe fixed) : 0
Duplicated bytes error (maybe fixed) : 0
Inconsistency in error sectors : 0
Track 03
Filename : /Volumes/Time Machine Backups/FLACS/03 - Geno.flac
/Volumes/Time Machine Backups/FLACS/03 - Geno.mp3
Track gain : -0.60 dB
Peak : 0.719910
CRC32 hash (test run) : D5D74370
CRC32 hash : D5D74370
CRC32 hash (skip zero) : 74481C46
AccurateRip signature : DD21B890
->Accurately ripped! (confidence 1)
Statistics
Read error : 0
Skipped (treated as error) : 0
Edge jitter error (maybe fixed) : 0
Atom jitter error (maybe fixed) : 0
Drift error (maybe fixed) : 0
Dropped bytes error (maybe fixed) : 0
Duplicated bytes error (maybe fixed) : 0
Inconsistency in error sectors : 0
No errors occurred
End of status report
 
cue
TITLE "Marzette Watts and Company"
PERFORMER "Marzette Watts and Company"
REM GENRE "Jazz"
REM DATE 1966
REM DISCNUMBER 1
REM TOTALDISCS 1
REM DISCID 2008BA03
FILE "01 - Backdrop for Urban Revolution.wav" WAVE
TRACK 01 AUDIO
TITLE "Backdrop for Urban Revolution"
INDEX 01 00:00:00
TRACK 02 AUDIO
TITLE "Ia"
INDEX 00 17:49:72
FILE "02 - Ia.wav" WAVE
INDEX 01 00:00:00
FILE "03 - Geno.wav" WAVE
TRACK 03 AUDIO
TITLE "Geno"
INDEX 01 00:00:00
 
Отчёт Audiocheckera
AUDIOCHECKER v2.0 beta (build 457) - by Dester - opdester@freemail.hu
~~~~~~~~~~~~~~~~~~~~~~~~~~~~~~~~~~
-=== DO NOT EDIT THIS FILE! ===-
AUDIOCHECKER v2.0 beta (build 457) - by Dester - opdester@freemail.hu
~~~~~~~~~~~~~~~~~~~~~~~~~~~~~~~~~~
-=== DO NOT EDIT THIS FILE! ===-
Path: ...\MarzetteFLac
1 -=- 01 - Backdrop for Urban Revolution.flac -=- CDDA (100%)
2 -=- 02 - Ia.flac -=- CDDA (100%)
3 -=- 03 - Geno.flac -=- CDDA (100%)
Summary 100,00% CDDA
95718020
Any questions -> support@pro-jazz.com. По всем вопросам пишите -> support@pro-jazz.com
01:35
154
Нет комментариев. Ваш будет первым!