Вы используете незарегистрированную версию компонента "Вкладки"!

Поиск

(free jazz) Mal Waldron & Steve Lacy - Journey Without End 1971 (vinyl), FLAC (tracks+.cue), lossless

Треклист:


Mal Waldron & Steve Lacy - Journey Without End 1971 (vinyl)
Жанр: free jazz
Год издания диска: 1971
Аудиокодек: FLAC (*.flac)
Тип рипа: tracks+.cue
Битрейт аудио: lossless
Источник (релизер): what.cd
Наличие сканов в содержимом раздачи: нет
Доп. информация: http://en.wikipedia.org/wiki/Journey_Without_End
Треклист:
"The Fire Now — 9:05
"Journey Without End" — 12:30
"I Feel a Draft" (Steve Lacy) — 7:54
"Bone" (Lacy) — 6:50
"Mar" (Lacy) — 9:15
 
Содержание индексной карты (.CUE)
REM GENRE Avant - jazz
REM DATE 1971
REM COMMENT vinyl rip
CATALOG SMJX 10134
PERFORMER "Mal Waldron & Steve Lacy "
TITLE "Journey Without End"
FILE "01 The Fire Now.flac" WAVE
TRACK 01 AUDIO
TITLE "The Fire Now"
INDEX 01 00:00:00
FILE "02 Journey Without End.flac" WAVE
TRACK 02 AUDIO
TITLE "Journey Without End"
INDEX 01 00:00:00
FILE "03 I Feel a Draft.flac" WAVE
TRACK 03 AUDIO
TITLE "I Feel a Draft"
INDEX 01 00:00:00
FILE "04 Bone.flac" WAVE
TRACK 04 AUDIO
TITLE "Bone"
INDEX 01 00:00:00
FILE "05 Mar.flac" WAVE
TRACK 05 AUDIO
TITLE "Mar"
INDEX 01 00:00:00
 
Лог проверки качества
auCDtect: CD records authenticity detector, version 0.8.2
Copyright (c) 2004 Oleg Berngardt. All rights reserved.
Copyright (c) 2004 Alexander Djourik. All rights reserved.
------------------------------------------------------------
Processing file: [01 The Fire Now.wav]
------------------------------------------------------------
This track looks like CDDA with probability 100%
------------------------------------------------------------
Processing file: [02 Journey Without End.wav]
------------------------------------------------------------
This track looks like CDDA with probability 99%
------------------------------------------------------------
Processing file: [03 I Feel a Draft.wav]
------------------------------------------------------------
This track looks like CDDA with probability 100%
------------------------------------------------------------
Processing file: [04 Bone.wav]
------------------------------------------------------------
This track looks like CDDA with probability 100%
------------------------------------------------------------
Processing file: [05 Mar.wav]
------------------------------------------------------------
This track looks like CDDA with probability 100%
------------------------------------------------------------
Final Conclusion:
------------------------------------------------------------
These tracks looks like CDDA with probability 100%
 
Состав
Mal Waldron — piano
Steve Lacy — soprano saxophone
Kent Carter — bass
Noel McGhie — drums
другие релизы
Any questions -> support@pro-jazz.com. По всем вопросам пишите -> support@pro-jazz.com
16:01
274
Нет комментариев. Ваш будет первым!