Вы используете незарегистрированную версию компонента "Вкладки"!

Поиск

( free jazz) Lisbon Improvisation Players - Live LxMeskla 2002, FLAC (tracks+.cue), lossless

( free jazz) Lisbon Improvisation Players - Live LxMeskla 2002, FLAC (tracks+.cue), lossless
Треклист:


Lisbon Improvisation Players - Live_LxMeskla 2002

Жанр: free jazz
Год выпуска: 2002
Издатель (лейбл):Clean Feed / CF007CD
Формат: FLAC (tracks+.cue)
Битрейт аудио: lossless
Продолжительность 50`38
Источник: what.cd
Alto Saxophone, Baritone Saxophone – Rodrigo Amado
Alto Saxophone, Soprano Saxophone – Paulo Curado
Double Bass – Pedro Gonçalves
Drums – Acácio Salero
Soprano Saxophone – Marco Franco
Design – Rui Garrido
Executive-producer – Trem Azul
Liner Notes – Rui Eduardo Paes
Mastered By – Fernando Rascão, Jorge Roque
Photography By [Cover Photo] – Rodrigo Amado
Producer – Rodrigo Amado
Recorded By – Miguel Escada
Recorded at Tivoli Theatre, Lisbon, on October 7th 2000.
All Compositions Were Totally Improvised.
LIP is an open formation lead by saxophone player rodrigo amado and committed to total improvisation.
CF007CD / Trem Azul 2002

tracks

1 Lisbon Improvisation Players 5:00
2 Blue Humans 11:33
3 Song For Bluiett 5:42
4 Memory Of A Free Festival 5:53
5 Conversation Piece
6 This Is Our Music 10:08 Alto Saxophone, Baritone Saxophone – Rodrigo Amado


 
.log
X Lossless Decoder version 20130127 (142.3)
XLD extraction logfile from 2013-01-29 05:05:37 +0400
Lisbon Improvisation Players / Live_LxMeskla
Used drive : HL-DT-ST DVDRW GX30N (revision RP09)
Media type : Pressed CD
Ripper mode : XLD Secure Ripper
Disable audio cache : OK for the drive with a cache less than 1375KiB
Make use of C2 pointers : NO
Read offset correction : 6
Max retry count : 20
Gap status : Analyzed, Appended
TOC of the extracted CD
Track | Start | Length | Start sector | End sector
---------------------------------------------------------
1 | 00:00:00 | 04:51:07 | 0 | 21831
2 | 04:51:07 | 11:24:35 | 21832 | 73166
3 | 16:15:42 | 05:37:02 | 73167 | 98443
4 | 21:52:44 | 05:49:14 | 98444 | 124632
5 | 27:41:58 | 04:44:29 | 124633 | 145961
6 | 32:26:12 | 18:11:33 | 145962 | 227819
List of alternate offset correction values
# | Absolute | Relative | Confidence
------------------------------------------
1 | 0 | -6 | 1
AccurateRip Summary (DiscID: 000a8e92-00393adb-560bdd06)
Track 01 : OK (v1, confidence 1/1, with different offset)
Track 02 : OK (v1, confidence 1/1, with different offset)
Track 03 : OK (v1, confidence 1/1, with different offset)
Track 04 : OK (v1, confidence 1/1, with different offset)
Track 05 : OK (v1, confidence 1/1, with different offset)
Track 06 : OK (v1, confidence 1/1, with different offset)
->All tracks accurately ripped.
All Tracks
Album gain : 0.98 dB
Peak : 0.997070
Statistics
Read error : 0
Jitter error (maybe fixed) : 0
Retry sector count : 0
Damaged sector count : 0
Track 01
Filename : /Users/anch/Music/FLAC/Lisbon Improvisation Players - 2002 - Live_LxMeskla [FLAC]/01 - Lisbon Improvisation Players.flac
/Users/anch/Music/FLAC/Lisbon Improvisation Players - 2002 - Live_LxMeskla [MP3 320]/01 - Lisbon Improvisation Players.mp3
/Users/anch/Music/FLAC/Lisbon Improvisation Players - 2002 - Live_LxMeskla [MP3 V0]/01 - Lisbon Improvisation Players.mp3
Pre-gap length : 00:02:00
Track gain : 1.25 dB
Peak : 0.949341
CRC32 hash (test run) : 618CEDA7
CRC32 hash : 618CEDA7
CRC32 hash (skip zero) : 0EBBF505
AccurateRip v1 signature : 60B9F9BA (FE73E4BA w/correction)
AccurateRip v2 signature : B2E535D7
->Accurately ripped with different offset (v1, confidence 1/1, offset -6)
Statistics
Read error : 0
Jitter error (maybe fixed) : 0
Retry sector count : 0
Damaged sector count : 0
Track 02
Filename : /Users/anch/Music/FLAC/Lisbon Improvisation Players - 2002 - Live_LxMeskla [FLAC]/02 - Blue Humans.flac
/Users/anch/Music/FLAC/Lisbon Improvisation Players - 2002 - Live_LxMeskla [MP3 320]/02 - Blue Humans.mp3
/Users/anch/Music/FLAC/Lisbon Improvisation Players - 2002 - Live_LxMeskla [MP3 V0]/02 - Blue Humans.mp3
Track gain : 0.57 dB
Peak : 0.972961
CRC32 hash (test run) : E09826B7
CRC32 hash : E09826B7
CRC32 hash (skip zero) : 375050A3
AccurateRip v1 signature : A54F7C71 (63BB360E w/correction)
AccurateRip v2 signature : AB3E71DF
->Accurately ripped with different offset (v1, confidence 1/1, offset -6)
Statistics
Read error : 0
Jitter error (maybe fixed) : 0
Retry sector count : 0
Damaged sector count : 0
Track 03
Filename : /Users/anch/Music/FLAC/Lisbon Improvisation Players - 2002 - Live_LxMeskla [FLAC]/03 - Song For Bluiett.flac
/Users/anch/Music/FLAC/Lisbon Improvisation Players - 2002 - Live_LxMeskla [MP3 320]/03 - Song For Bluiett.mp3
/Users/anch/Music/FLAC/Lisbon Improvisation Players - 2002 - Live_LxMeskla [MP3 V0]/03 - Song For Bluiett.mp3
Track gain : 2.63 dB
Peak : 0.977997
CRC32 hash (test run) : CFD12B52
CRC32 hash : CFD12B52
CRC32 hash (skip zero) : 3EF88067
AccurateRip v1 signature : 8C24A333 (CCA45D1E w/correction)
AccurateRip v2 signature : DB6AC9C8
->Accurately ripped with different offset (v1, confidence 1/1, offset -6)
Statistics
Read error : 0
Jitter error (maybe fixed) : 0
Retry sector count : 0
Damaged sector count : 0
Track 04
Filename : /Users/anch/Music/FLAC/Lisbon Improvisation Players - 2002 - Live_LxMeskla [FLAC]/04 - Memory Of A Free Festival.flac
/Users/anch/Music/FLAC/Lisbon Improvisation Players - 2002 - Live_LxMeskla [MP3 320]/04 - Memory Of A Free Festival.mp3
/Users/anch/Music/FLAC/Lisbon Improvisation Players - 2002 - Live_LxMeskla [MP3 V0]/04 - Memory Of A Free Festival.mp3
Track gain : 0.55 dB
Peak : 0.997070
CRC32 hash (test run) : D1B0F2E1
CRC32 hash : D1B0F2E1
CRC32 hash (skip zero) : AC09BE99
AccurateRip v1 signature : 867E1D5F (DB576369 w/correction)
AccurateRip v2 signature : 4DCC1FB2
->Accurately ripped with different offset (v1, confidence 1/1, offset -6)
Statistics
Read error : 0
Jitter error (maybe fixed) : 0
Retry sector count : 0
Damaged sector count : 0
Track 05
Filename : /Users/anch/Music/FLAC/Lisbon Improvisation Players - 2002 - Live_LxMeskla [FLAC]/05 - Conversation Piece.flac
/Users/anch/Music/FLAC/Lisbon Improvisation Players - 2002 - Live_LxMeskla [MP3 320]/05 - Conversation Piece.mp3
/Users/anch/Music/FLAC/Lisbon Improvisation Players - 2002 - Live_LxMeskla [MP3 V0]/05 - Conversation Piece.mp3
Track gain : 2.83 dB
Peak : 0.977814
CRC32 hash (test run) : 0D635258
CRC32 hash : 0D635258
CRC32 hash (skip zero) : 8D41E36D
AccurateRip v1 signature : 69F0E1A9 (C64B8DEA w/correction)
AccurateRip v2 signature : 997CA5DD
->Accurately ripped with different offset (v1, confidence 1/1, offset -6)
Statistics
Read error : 0
Jitter error (maybe fixed) : 0
Retry sector count : 0
Damaged sector count : 0
Track 06
Filename : /Users/anch/Music/FLAC/Lisbon Improvisation Players - 2002 - Live_LxMeskla [FLAC]/06 - This Is Our Music.flac
/Users/anch/Music/FLAC/Lisbon Improvisation Players - 2002 - Live_LxMeskla [MP3 320]/06 - This Is Our Music.mp3
/Users/anch/Music/FLAC/Lisbon Improvisation Players - 2002 - Live_LxMeskla [MP3 V0]/06 - This Is Our Music.mp3
Track gain : 0.57 dB
Peak : 0.810455
CRC32 hash (test run) : 405473E8
CRC32 hash : 405473E8
CRC32 hash (skip zero) : 272F08FE
AccurateRip v1 signature : BAF07AB5 (71765D23 w/correction)
AccurateRip v2 signature : 0AA4F8BC
->Accurately ripped with different offset (v1, confidence 1/1, offset -6)
Statistics
Read error : 0
Jitter error (maybe fixed) : 0
Retry sector count : 0
Damaged sector count : 0
No errors occurred
End of status report
 
.cue
TITLE "Live_LxMeskla"
PERFORMER "Lisbon Improvisation Players"
REM GENRE "Free Jazz"
REM DATE "2002"
REM DISCID 560BDD06
REM REPLAYGAIN_ALBUM_GAIN 0.98 dB
REM REPLAYGAIN_ALBUM_PEAK 0.997070
FILE "01 - Lisbon Improvisation Players.flac" WAVE
TRACK 01 AUDIO
TITLE "Lisbon Improvisation Players"
PERFORMER "Lisbon Improvisation Players"
REM REPLAYGAIN_TRACK_GAIN 1.25 dB
REM REPLAYGAIN_TRACK_PEAK 0.949341
INDEX 01 00:00:00
FILE "02 - Blue Humans.flac" WAVE
TRACK 02 AUDIO
TITLE "Blue Humans"
PERFORMER "Lisbon Improvisation Players"
REM REPLAYGAIN_TRACK_GAIN 0.57 dB
REM REPLAYGAIN_TRACK_PEAK 0.972961
INDEX 01 00:00:00
FILE "03 - Song For Bluiett.flac" WAVE
TRACK 03 AUDIO
TITLE "Song For Bluiett"
PERFORMER "Lisbon Improvisation Players"
REM REPLAYGAIN_TRACK_GAIN 2.63 dB
REM REPLAYGAIN_TRACK_PEAK 0.977997
INDEX 01 00:00:00
FILE "04 - Memory Of A Free Festival.flac" WAVE
TRACK 04 AUDIO
TITLE "Memory Of A Free Festival"
PERFORMER "Lisbon Improvisation Players"
REM REPLAYGAIN_TRACK_GAIN 0.55 dB
REM REPLAYGAIN_TRACK_PEAK 0.997070
INDEX 01 00:00:00
FILE "05 - Conversation Piece.flac" WAVE
TRACK 05 AUDIO
TITLE "Conversation Piece"
PERFORMER "Lisbon Improvisation Players"
REM REPLAYGAIN_TRACK_GAIN 2.83 dB
REM REPLAYGAIN_TRACK_PEAK 0.977814
INDEX 01 00:00:00
FILE "06 - This Is Our Music.flac" WAVE
TRACK 06 AUDIO
TITLE "This Is Our Music"
PERFORMER "Lisbon Improvisation Players"
REM REPLAYGAIN_TRACK_GAIN 0.57 dB
REM REPLAYGAIN_TRACK_PEAK 0.810455
INDEX 01 00:00:00

другие релизы
Any questions -> support@pro-jazz.com. По всем вопросам пишите -> support@pro-jazz.com
08:47
145
Нет комментариев. Ваш будет первым!