Вы используете незарегистрированную версию компонента "Вкладки"!

Поиск

(Free Jazz) Ken Vandermark feat. Marcin Oles & Bartlomiej Brat Oles - Ideas - 2005, APE (image+.cue), lossless

(Free Jazz) Ken Vandermark feat. Marcin Oles & Bartlomiej Brat Oles - Ideas - 2005, APE (image+.cue), lossless
Треклист:
Ken Vandermark feat. Marcin Oleś & Bartłomiej Brat Oleś - Ideas
Жанр: Free Jazz
Год выпуска диска: 2005
Производитель диска: Польша
Аудио кодек: APE
Тип рипа: image+.cue
Битрейт аудио: lossless
Продолжительность: 1:07:51
Трэклист:
1. One [12:32]
2. Uncle B. [05:53]
3. Ideas (part one) [09:43]
4. Ideas (part two) [06:56]
5. Still Up [06:45]
6. Layers [08:35]
7. West Coast [04:42]
8. Tightrope [02:59]
9. Drumsax County [04:16]
10. Sonus [05:29]
Ken Vandermark - tenor & baritones saxes, clarinet
Marcin Oleś - double bass
Bartłomiej Brat Oleś - drums
 
Отчёт EAC
Exact Audio Copy V0.99 prebeta 4 from 23. January 2008
Отчёт EAC об извлечении, выполненном 1. ноября 2009, 14:35
Ken Vandermark, Marcin Oles, Bartlomiej Brat Oles / Ideas
Дисковод: ASUS DRW-20B1LT Adapter: 0 ID: 0
Режим чтения : Достоверность
Использование точного потока : Да
Отключение кэша аудио : Да
Использование указателей C2 : Нет
Коррекция смещения при чтении : 6
Способность читать области Lead-in и Lead-out : Нет
Заполнение пропущенных сэмплов тишиной : Да
Удаление блоков с тишиной в начале и конце : Нет
При вычислениях CRC использовались нулевые сэмплы : Да
Интерфейс : Установленный внешний ASPI-интерфейс
Выходной формат : Внутренние WAV-операции
Формат сэмплов : 44.100 Гц; 16 бит; стерео
TOC извлечённого CD
Трек | Старт | Длительность | Начальный сектор | Конечный сектор
---------------------------------------------------------------------
1 | 0:00.00 | 12:32.36 | 0 | 56435
2 | 12:32.36 | 5:52.54 | 56436 | 82889
3 | 18:25.15 | 9:43.48 | 82890 | 126662
4 | 28:08.63 | 6:55.46 | 126663 | 157833
5 | 35:04.34 | 6:45.33 | 157834 | 188241
6 | 41:49.67 | 8:34.68 | 188242 | 226859
7 | 50:24.60 | 4:41.51 | 226860 | 247985
8 | 55:06.36 | 2:59.05 | 247986 | 261415
9 | 58:05.41 | 4:15.37 | 261416 | 280577
10 | 62:21.03 | 5:29.64 | 280578 | 305316
Характеристики диапазона извлечения и сообщения об ошибках
Выбранный диапазон
Имя файла H:\черновики\Ken Vandermark, Marcin Oles, Bartlomiej Brat Oles - Ideas\Ken Vandermark, Marcin Oles, Bartlomiej Brat Oles - Ideas.wav
Пиковый уровень 98.8 %
Качество диапазона 99.9 %
CRC копии D5E186C4
Копирование... OK
Ошибок не произошло
AccurateRip: сводка
Трек 1 точное извлечение (доверие 2) [5EDE2ACF]
Трек 2 точное извлечение (доверие 2) [E877EADF]
Трек 3 точное извлечение (доверие 2) [22B92827]
Трек 4 точное извлечение (доверие 2) [3A4B3EE2]
Трек 5 точное извлечение (доверие 2) [5FDD08A8]
Трек 6 точное извлечение (доверие 2) [EC40F3FC]
Трек 7 точное извлечение (доверие 2) [E86C17F7]
Трек 8 точное извлечение (доверие 2) [C7C6FAE7]
Трек 9 точное извлечение (доверие 2) [9743DC60]
Трек 10 точное извлечение (доверие 2) [6F79CF84]
Все треки извлечены точно
Конец отчёта
По всем вопросам пишите личное сообщение пользователю M0p94ok.
16:04
217
Нет комментариев. Ваш будет первым!