Вы используете незарегистрированную версию компонента "Вкладки"!

Поиск

(free jazz) Julius Hemphill - Dogon A.D. 1972 (2011 Remaster) , FLAC (tracks+.cue), lossless

Треклист:

Julius Hemphill - Dogon A.D. 1972 (2011 Remaster)

Жанр: free jazz
Год издания диска: 2011
Издатель (лейбл): Freedom
Аудиокодек: FLAC (*.flac)
Тип рипа: tracks+.cue
Битрейт аудио: lossless
Продолжительность: 58`11
Источник (релизер): what.cd
Наличие сканов в содержимом раздачи: нет
Треклист:
1. Dogon A.D.
2. Rites
3. The Painter
4. The Hard Blues
 
Лог создания рипа
Exact Audio Copy V1.0 beta 2 from 29. April 2011
EAC extraction logfile from 30. October 2011, 21:39
Julius Hemphill / Dogon A.D.
Used drive : ASUS SDRW-08D2S-U Adapter: 1 ID: 0
Read mode : Secure
Utilize accurate stream : Yes
Defeat audio cache : Yes
Make use of C2 pointers : No
Read offset correction : 103
Overread into Lead-In and Lead-Out : No
Fill up missing offset samples with silence : Yes
Delete leading and trailing silent blocks : No
Null samples used in CRC calculations : Yes
Used interface : Native Win32 interface for Win NT & 2000
Gap handling : Appended to previous track
Used output format : User Defined Encoder
Selected bitrate : 1024 kBit/s
Quality : High
Add ID3 tag : No
Command line compressor : C:\Program Files (x86)\Exact Audio Copy\Flac\flac.exe
Additional command line options : -8 -V -T "ARTIST=%artist%" -T "TITLE=%title%" -T "ALBUM=%albumtitle%" -T "DATE=%year%" -T "TRACKNUMBER=%tracknr%" -T "GENRE=%genre%" -T "PERFORMER=%albuminterpret%" -T "COMPOSER=%composer%" %haslyrics%--tag-from-file=LYRICS
TOC of the extracted CD
Track | Start | Length | Start sector | End sector
---------------------------------------------------------
1 | 0:00.00 | 14:49.58 | 0 | 66732
2 | 14:49.58 | 8:15.56 | 66733 | 103913
3 | 23:05.39 | 14:55.37 | 103914 | 171075
4 | 38:01.01 | 20:10.04 | 171076 | 261829
Track 1
Filename C:\Rips\Julius Hemphill - Dogon A.D. (1972; 2011 Remaster) [FLAC]\01 - Dogon A.D..wav
Pre-gap length 0:00:02.00
Peak level 100.0 %
Extraction speed 1.5 X
Track quality 99.9 %
Test CRC EFF4F5EF
Copy CRC EFF4F5EF
Track not present in AccurateRip database
Copy OK
Track 2
Filename C:\Rips\Julius Hemphill - Dogon A.D. (1972; 2011 Remaster) [FLAC]\02 - Rites.wav
Peak level 100.0 %
Extraction speed 1.8 X
Track quality 100.0 %
Test CRC B1A35894
Copy CRC B1A35894
Track not present in AccurateRip database
Copy OK
Track 3
Filename C:\Rips\Julius Hemphill - Dogon A.D. (1972; 2011 Remaster) [FLAC]\03 - The Painter.wav
Peak level 100.0 %
Extraction speed 2.2 X
Track quality 100.0 %
Test CRC E795902B
Copy CRC E795902B
Track not present in AccurateRip database
Copy OK
Track 4
Filename C:\Rips\Julius Hemphill - Dogon A.D. (1972; 2011 Remaster) [FLAC]\04 - The Hard Blues.wav
Peak level 100.0 %
Extraction speed 2.6 X
Track quality 100.0 %
Test CRC 1EF2D34E
Copy CRC 1EF2D34E
Track not present in AccurateRip database
Copy OK
None of the tracks are present in the AccurateRip database
No errors occurred
End of status report
==== Log checksum 24541E73AAC5132AB126C891701B3AC5AAAEB49EC3449CABBA2636D2B9868229 ====
 
Содержание индексной карты (.CUE)
REM GENRE Jazz
REM DATE 2011
REM DISCID 360DA304
REM COMMENT "ExactAudioCopy v1.0b2"
FILE "01 - Dogon A.D..wav" WAVE
TRACK 01 AUDIO
FLAGS DCP
INDEX 01 00:00:00
FILE "02 - Rites.wav" WAVE
TRACK 02 AUDIO
FLAGS DCP
INDEX 01 00:00:00
FILE "03 - The Painter.wav" WAVE
TRACK 03 AUDIO
FLAGS DCP
INDEX 01 00:00:00
FILE "04 - The Hard Blues.wav" WAVE
TRACK 04 AUDIO
FLAGS DCP
INDEX 01 00:00:00
 
Лог проверки качества
auCDtect: CD records authenticity detector, version 0.8.2
Copyright (c) 2004 Oleg Berngardt. All rights reserved.
Copyright (c) 2004 Alexander Djourik. All rights reserved.
------------------------------------------------------------
Processing file: [01 - Dogon A.D..wav]
------------------------------------------------------------
This track looks like CDDA with probability 49%
------------------------------------------------------------
Processing file: [02 - Rites.wav]
------------------------------------------------------------
This track looks like CDDA with probability 43%
------------------------------------------------------------
Processing file: [03 - The Painter.wav]
------------------------------------------------------------
This track looks like CDDA with probability 100%
------------------------------------------------------------
Processing file: [04 - The Hard Blues.wav]
------------------------------------------------------------
This track looks like CDDA with probability 54%
------------------------------------------------------------
Final Conclusion:
------------------------------------------------------------
These tracks looks like CDDA with probability 100%
другие релизы
Any questions -> support@pro-jazz.com. По всем вопросам пишите -> support@pro-jazz.com
19:09
312
Нет комментариев. Ваш будет первым!