Вы используете незарегистрированную версию компонента "Вкладки"!

Поиск

(free jazz) Julius Hemphill Big Band (1988), FLAC (tracks+.cue), lossless

(free jazz) Julius Hemphill Big Band (1988), FLAC (tracks+.cue), lossless
Треклист:

Julius Hemphill Big Band (1988) /

Жанр: free jazz
Год издания диска: 1988
Издатель (лейбл): Elektra Musician – 960 831-1 U
Аудиокодек: FLAC (*.flac)
Тип рипа: tracks+.cue
Битрейт аудио: lossless
Продолжительность: 1`00`37
Источник (релизер): what.cd
Наличие сканов в содержимом раздачи: нет
Live Recording
Recorded at RCA Studio A, New York, New York in February 1988.
Julius Hemphill Big Band: Julius Hemphill (soprano & alto saxophones); K. Curtis Lyle (spoken vocals); Marty Ehrilich (soprano & alto saxophones, flute); Jon Purcell, John Stubblefield (soprano & tenor saxophones, flute); J.D. Parran (baritone saxophone, flute); David Hines, Rasul Siddik (trumpet); Vincent Chancey, John Clark (French horn); Frank Lacy (trombone); David Taylor (bass trombone); Jack Wilkins, Bill Frisell (electric guitar); Jerome Harris (electric bass); Ronnie Burrage (drums); Gordon Gottlieb (percussion).
Треклист:
1. At Harmony
2. Leora
3. C/Saw
4. For Billie
5. Drunk on God
6. Bordertown
 
Лог создания рипа
X Lossless Decoder version 20111015 (136.4)
XLD extraction logfile from 2011-11-06 19:29:06 +0000
Julius Hemphill / Julius Hemphill Big Band
Used drive : HL-DT-ST DVDRW GS23N (revision SB07)
Ripper mode : XLD Secure Ripper
Disable audio cache : OK for the drive with a cache less than 1375KiB
Make use of C2 pointers : NO
Read offset correction : 667
Max retry count : 100
Gap status : Analyzed, Appended (except HTOA)
TOC of the extracted CD
Track | Start | Length | Start sector | End sector
---------------------------------------------------------
1 | 00:00:32 | 09:03:38 | 32 | 40794
2 | 09:03:70 | 06:02:02 | 40795 | 67946
3 | 15:05:72 | 08:29:50 | 67947 | 106171
4 | 23:35:47 | 08:32:65 | 106172 | 144636
5 | 32:08:37 | 18:53:55 | 144637 | 229666
6 | 51:02:17 | 09:35:43 | 229667 | 272834
List of alternate offset correction values
# | Absolute | Relative | Confidence
------------------------------------------
1 | -392 | -1059 | 4
AccurateRip Summary
Track 01 : OK (confidence 3)
Track 02 : OK (confidence 3)
Track 03 : OK (confidence 3)
Track 04 : OK (confidence 3)
Track 05 : OK (confidence 3)
Track 06 : OK (confidence 3)
->All tracks accurately ripped.
All Tracks
Album gain : -3.08 dB
Peak : 0.999847
Statistics
Read error : 0
Jitter error (maybe fixed) : 0
Retry sector count : 0
Damaged sector count : 0
Track 01
Filename : /Users/matiasgimeno/Desktop/UP/Julius Hemphill - Julius Hemphill Big Band (1988) [FLAC]/01 At Harmony.flac
Pre-gap length : 00:02:32
Track gain : -2.97 dB
Peak : 0.999359
CRC32 hash (test run) : 1F3DCF4A
CRC32 hash : 1F3DCF4A
CRC32 hash (skip zero) : BABD0686
AccurateRip signature : 5CB0D5B4
->Accurately ripped! (confidence 3)
Statistics
Read error : 0
Jitter error (maybe fixed) : 0
Retry sector count : 0
Damaged sector count : 0
Track 02
Filename : /Users/matiasgimeno/Desktop/UP/Julius Hemphill - Julius Hemphill Big Band (1988) [FLAC]/02 Leora.flac
Pre-gap length : 00:02:73
Track gain : -3.76 dB
Peak : 0.733551
CRC32 hash (test run) : 09D7E94C
CRC32 hash : 09D7E94C
CRC32 hash (skip zero) : 24B29EEA
AccurateRip signature : 5A9CDFDD
->Accurately ripped! (confidence 3)
Statistics
Read error : 0
Jitter error (maybe fixed) : 0
Retry sector count : 0
Damaged sector count : 0
Track 03
Filename : /Users/matiasgimeno/Desktop/UP/Julius Hemphill - Julius Hemphill Big Band (1988) [FLAC]/03 C/Saw.flac
Pre-gap length : 00:02:62
Track gain : -2.88 dB
Peak : 0.982025
CRC32 hash (test run) : C06198E4
CRC32 hash : C06198E4
CRC32 hash (skip zero) : 37FC9E7D
AccurateRip signature : 856340A1
->Accurately ripped! (confidence 3)
Statistics
Read error : 0
Jitter error (maybe fixed) : 0
Retry sector count : 0
Damaged sector count : 0
Track 04
Filename : /Users/matiasgimeno/Desktop/UP/Julius Hemphill - Julius Hemphill Big Band (1988) [FLAC]/04 For Billie.flac
Pre-gap length : 00:00:17
Track gain : -3.86 dB
Peak : 0.999847
CRC32 hash (test run) : 016FBBC5
CRC32 hash : 016FBBC5
CRC32 hash (skip zero) : F56E2EB9
AccurateRip signature : 8746960F
->Accurately ripped! (confidence 3)
Statistics
Read error : 0
Jitter error (maybe fixed) : 0
Retry sector count : 0
Damaged sector count : 0
Track 05
Filename : /Users/matiasgimeno/Desktop/UP/Julius Hemphill - Julius Hemphill Big Band (1988) [FLAC]/05 Drunk On God.flac
Pre-gap length : 00:03:47
Track gain : -2.88 dB
Peak : 0.977203
CRC32 hash (test run) : ACD867F4
CRC32 hash : ACD867F4
CRC32 hash (skip zero) : 758112A1
AccurateRip signature : 555A9CE9
->Accurately ripped! (confidence 3)
Statistics
Read error : 0
Jitter error (maybe fixed) : 0
Retry sector count : 0
Damaged sector count : 0
Track 06
Filename : /Users/matiasgimeno/Desktop/UP/Julius Hemphill - Julius Hemphill Big Band (1988) [FLAC]/06 Bordertown.flac
Pre-gap length : 00:01:40
Track gain : -1.36 dB
Peak : 0.901398
CRC32 hash (test run) : 12761251
CRC32 hash : 12761251
CRC32 hash (skip zero) : 1CD4285F
AccurateRip signature : AEC6A0E2
->Accurately ripped! (confidence 3)
Statistics
Read error : 0
Jitter error (maybe fixed) : 0
Retry sector count : 0
Damaged sector count : 0
No errors occurred
End of status report
 
Содержание индексной карты (.CUE)
TITLE "Julius Hemphill Big Band"
PERFORMER "Julius Hemphill"
CATALOG 0075596083126
REM GENRE "Jazz"
REM DATE "1988"
REM DISCNUMBER 1
REM TOTALDISCS 1
REM DISCID 470E3506
REM REPLAYGAIN_ALBUM_GAIN -3.08 dB
REM REPLAYGAIN_ALBUM_PEAK 0.999847
FILE "01 At Harmony.flac" WAVE
TRACK 01 AUDIO
TITLE "At Harmony"
REM REPLAYGAIN_TRACK_GAIN -2.97 dB
REM REPLAYGAIN_TRACK_PEAK 0.999359
PREGAP 00:00:32
INDEX 01 00:00:00
TRACK 02 AUDIO
TITLE "Leora"
REM REPLAYGAIN_TRACK_GAIN -3.76 dB
REM REPLAYGAIN_TRACK_PEAK 0.733551
INDEX 00 09:00:40
FILE "02 Leora.flac" WAVE
INDEX 01 00:00:00
TRACK 03 AUDIO
TITLE "C/Saw"
REM REPLAYGAIN_TRACK_GAIN -2.88 dB
REM REPLAYGAIN_TRACK_PEAK 0.982025
INDEX 00 05:59:15
FILE "03 C_Saw.flac" WAVE
INDEX 01 00:00:00
TRACK 04 AUDIO
TITLE "For Billie"
REM REPLAYGAIN_TRACK_GAIN -3.86 dB
REM REPLAYGAIN_TRACK_PEAK 0.999847
INDEX 00 08:29:33
FILE "04 For Billie.flac" WAVE
INDEX 01 00:00:00
TRACK 05 AUDIO
TITLE "Drunk On God"
REM REPLAYGAIN_TRACK_GAIN -2.88 dB
REM REPLAYGAIN_TRACK_PEAK 0.977203
INDEX 00 08:29:18
FILE "05 Drunk On God.flac" WAVE
INDEX 01 00:00:00
TRACK 06 AUDIO
TITLE "Bordertown"
REM REPLAYGAIN_TRACK_GAIN -1.36 dB
REM REPLAYGAIN_TRACK_PEAK 0.901398
INDEX 00 18:52:15
FILE "06 Bordertown.flac" WAVE
INDEX 01 00:00:00
другие релизы
Any questions -> support@pro-jazz.com. По всем вопросам пишите -> support@pro-jazz.com
19:11
344
Нет комментариев. Ваш будет первым!