Вы используете незарегистрированную версию компонента "Вкладки"!

Поиск

(Free Jazz) Julian Priester / Sam Rivers - Hints On Light And Shadow - 1997, FLAC (image+.cue), lossless

(Free Jazz) Julian Priester / Sam Rivers - Hints On Light And Shadow - 1997, FLAC (image+.cue), lossless
Треклист:
Julian Priester / Sam Rivers - Hints On Light And Shadow
Жанр: Free Jazz
Страна-производитель диска: USA
Год издания диска: 1997
Издатель (лейбл): Postcards
Номер по каталогу: POST 1017
Страна: USA
Аудиокодек: FLAC (*.flac)
Тип рипа: image+.cue
Битрейт аудио: lossless
Продолжительность: 48:52
Источник (релизер): CD
Наличие сканов в содержимом раздачи: да
Треклист:
01 - Heads Of The People
02 - Desire
03 - Zone
04 - The New System
05 - Mister Mayor And Mister Miser
06 - Autumnal Influences - The Book Of Beauty
07 - Public Servant
08 - The Circumlocution Office
09 - Chiaroscuro
 
Лог создания рипа
Exact Audio Copy V1.0 beta 2 from 29. April 2011
EAC extraction logfile from 7. July 2011, 15:56
Julian Priester - Sam Rivers / Hints On Light And Shadow
Used drive : Optiarc DVD RW AD-7240S Adapter: 2 ID: 0
Read mode : Secure
Utilize accurate stream : Yes
Defeat audio cache : Yes
Make use of C2 pointers : No
Read offset correction : 48
Overread into Lead-In and Lead-Out : No
Fill up missing offset samples with silence : Yes
Delete leading and trailing silent blocks : No
Null samples used in CRC calculations : Yes
Used interface : Native Win32 interface for Win NT & 2000
Used output format : User Defined Encoder
Selected bitrate : 768 kBit/s
Quality : High
Add ID3 tag : No
Command line compressor : C:\Program Files\Exact Audio Copy\FLAC\FLAC.EXE
Additional command line options : -6 -V -T "ARTIST=%artist%" -T "TITLE=%title%" -T "ALBUM=%albumtitle%" -T "DATE=%year%" -T "TRACKNUMBER=%tracknr%" -T "GENRE=%genre%" -T "COMMENT=%comment%" -T "BAND=%albuminterpret%" -T "COMPOSER=%composer%" %haslyrics%--ta
TOC of the extracted CD
Track | Start | Length | Start sector | End sector
---------------------------------------------------------
1 | 0:00.00 | 6:53.55 | 0 | 31029
2 | 6:53.55 | 5:57.25 | 31030 | 57829
3 | 12:51.05 | 3:43.72 | 57830 | 74626
4 | 16:35.02 | 5:17.35 | 74627 | 98436
5 | 21:52.37 | 7:14.48 | 98437 | 131034
6 | 29:07.10 | 5:57.47 | 131035 | 157856
7 | 35:04.57 | 4:20.18 | 157857 | 177374
8 | 39:25.00 | 4:19.17 | 177375 | 196816
9 | 43:44.17 | 5:07.23 | 196817 | 219864
Range status and errors
Selected range
Filename C:\Documents and Settings\User\Мои документы\Julian Priester - Sam Rivers, Hints On Light And Shadow (1997)\Julian Priester - Sam Rivers - Hints On Light And Shadow.wav
Peak level 98.9 %
Extraction speed 3.7 X
Range quality 99.9 %
Test CRC 58810112
Copy CRC 58810112
Copy OK
No errors occurred
AccurateRip summary
Track 1 accurately ripped (confidence 1) [8AC78BE5] (AR v1)
Track 2 accurately ripped (confidence 1) [9B50C6E1] (AR v1)
Track 3 accurately ripped (confidence 1) [B09CC838] (AR v1)
Track 4 accurately ripped (confidence 1) [D5104F16] (AR v1)
Track 5 accurately ripped (confidence 1) [FB887182] (AR v1)
Track 6 accurately ripped (confidence 1) [4130416A] (AR v1)
Track 7 accurately ripped (confidence 1) [7067B7EE] (AR v1)
Track 8 accurately ripped (confidence 1) [B831256A] (AR v1)
Track 9 accurately ripped (confidence 1) [FB85A50F] (AR v1)
All tracks accurately ripped
End of status report
 
Содержание индексной карты (.CUE)
REM GENRE Jazz
REM DATE 1997
REM DISCID 7F0B7309
REM COMMENT "ExactAudioCopy v1.0b2"
PERFORMER "Julian Priester - Sam Rivers"
TITLE "Hints On Light And Shadow"
FILE "Julian Priester - Sam Rivers - Hints On Light And Shadow.flac" WAVE
TRACK 01 AUDIO
TITLE "Heads Of The People"
PERFORMER "Julian Priester - Sam Rivers"
INDEX 01 00:00:00
TRACK 02 AUDIO
TITLE "Desire"
PERFORMER "Julian Priester - Sam Rivers"
INDEX 00 06:51:61
INDEX 01 06:53:55
TRACK 03 AUDIO
TITLE "Zone"
PERFORMER "Julian Priester - Sam Rivers"
INDEX 00 12:48:66
INDEX 01 12:51:05
TRACK 04 AUDIO
TITLE "The New System"
PERFORMER "Julian Priester - Sam Rivers"
INDEX 00 16:32:02
INDEX 01 16:35:02
TRACK 05 AUDIO
TITLE "Mister Major And Mister Miser"
PERFORMER "Julian Priester - Sam Rivers"
INDEX 00 21:49:37
INDEX 01 21:52:37
TRACK 06 AUDIO
TITLE "Autumnal Influences: The Book Of Beaty"
PERFORMER "Julian Priester - Sam Rivers"
INDEX 00 29:03:55
INDEX 01 29:07:10
TRACK 07 AUDIO
TITLE "Public Servant"
PERFORMER "Julian Priester - Sam Rivers"
INDEX 00 35:01:60
INDEX 01 35:04:57
TRACK 08 AUDIO
TITLE "The Circumlocation Office"
PERFORMER "Julian Priester - Sam Rivers"
INDEX 00 39:21:21
INDEX 01 39:25:00
TRACK 09 AUDIO
TITLE "Chiaroscuro"
PERFORMER "Julian Priester - Sam Rivers"
INDEX 00 43:40:57
INDEX 01 43:44:17
 
Об альбоме (сборнике)
On this album, Julian Priester / Sam Rivers: Hints on Light and Shadow, the two maestros mesh their free-spirited instincts with electronics that enlarge the Jazz palette and electrify the proceedings: a brass and reed fantasy distilled to its pure, swinging, melodic essence. This unprecedented duet session blends the music of two Jazz masters (who have played with such wide ranging artists as T-Bone Walker, Billie Holiday, Miles Davis, Duke Ellington, Herbie Hancock, and on through the distant musical galaxies of Sun Ra) with the fresh, post-modern, cutting edge electronics of Tucker Martine (the Grammy Nomination producer for Bill Frisell, The Decemberists, and Sufjan Stevens). Together, Priester & Simon achieve the highest level of communication through improvisational feel and thought, in a manner rarely captured and released on recordings.
"a welcomed addition to both artists' discographies." - JazzTimes
"an example of Rivers' free-blowing brilliance… Priester is a fine nimble player ...they're both such able improvisers that moments of revelation are inevitable." - Jazziz
"Postcards continues to explore the possibilities of improvisation in an electro-acoustic setting... I highly recommend it for headphone listening." - Cadence Magazine
The combination of Sam Rivers multi-instrumental mind (he plays Tenor Saxophone, Soprano Saxophone, Flute, and Piano on this album) and the virtuosic trombone depth and delicacy achieved by Julian Priester, culminates in an impressive and thought-provoking Free Jazz album from the Postcards label entitled Julian Priester / Sam Rivers: Hints on Light and Shadow.
 
Состав
Julian Priester - trombone
Sam Rivers - tenor and soprano saxophones, flute, piano
Tucker Martine - electronics
Any questions -> support@pro-jazz.com. По всем вопросам пишите -> support@pro-jazz.com
14:25
202
Нет комментариев. Ваш будет первым!