Поиск

(Free Jazz) Joseph Jarman, Geri Allen, Fred Hopkins, Famoudou Don Moye - Inheritance - 1983, APE (image+.cue) lossless

Треклист:
Joseph Jarman, Geri Allen, Fred Hopkins, Famoudou Don Moye / Inheritance
Жанр: Free Jazz
Год издания диска: 1983
Издатель (лейбл): Four Star
Номер по каталогу: FS-40060
Аудио кодек: APE (*.ape)
Тип рипа: image+.cue
Битрейт аудио: lossless
Продолжительность: 47:25
Источник (релизер): сетЪ
Наличие сканов в содержимом раздачи: да
Треклист:
01. Inheritance 11:09
02. Petite Fleur 3:41
03. Old Time South Street Dance 4:22
04. Blues for Alice 4:27
05. Unicorn in Shadows 2:32
06. Love Song for a Rainy Monday 11:32
07. Oh Sensei Ni Sasageru 9:33
 
Лог создания рипа
Exact Audio Copy V0.99 prebeta 5 from 4. May 2009
EAC extraction logfile from 27. October 2010, 18:29
Joseph Jarman / Inheritance
Used drive : TSSTcorpDVD+-RW TS-U633A Adapter: 0 ID: 1
Read mode : Secure
Utilize accurate stream : Yes
Defeat audio cache : Yes
Make use of C2 pointers : No
Read offset correction : 6
Overread into Lead-In and Lead-Out : No
Fill up missing offset samples with silence : Yes
Delete leading and trailing silent blocks : No
Null samples used in CRC calculations : Yes
Used interface : Native Win32 interface for Win NT & 2000
Used output format : Internal WAV Routines
Sample format : 44.100 Hz; 16 Bit; Stereo
TOC of the extracted CD
Track | Start | Length | Start sector | End sector
---------------------------------------------------------
1 | 0:00.33 | 11:11.02 | 33 | 50359
2 | 11:11.35 | 3:43.68 | 50360 | 67152
3 | 14:55.28 | 4:22.45 | 67153 | 86847
4 | 19:17.73 | 4:28.35 | 86848 | 106982
5 | 23:46.33 | 2:33.62 | 106983 | 118519
6 | 26:20.20 | 11:32.58 | 118520 | 170477
7 | 37:53.03 | 9:32.45 | 170478 | 213422
Range status and errors
Selected range
Filename C:\_Arc\EAC_Out\Joseph Jarman - Inheritance\Joseph Jarman - Inheritance.wav
Peak level 99.0 %
Range quality 99.9 %
Copy CRC 9A4299F0
Copy OK
No errors occurred
AccurateRip summary
Track 1 accurately ripped (confidence 1) [5BBC5F33]
Track 2 accurately ripped (confidence 1) [B20565C5]
Track 3 accurately ripped (confidence 1) [7DC16EEB]
Track 4 accurately ripped (confidence 1) [C42E21DE]
Track 5 accurately ripped (confidence 1) [45EA953B]
Track 6 accurately ripped (confidence 1) [E356BDD1]
Track 7 cannot be verified as accurate (confidence 1) [19C0767F], AccurateRip returned [12862E97]
6 track(s) accurately ripped
1 track(s) could not be verified as accurate
Some tracks could not be verified as accurate
End of status report
 
Об альбоме (сборнике)
AMG:
"Jarman, most widely known as an essential member of the Art Ensemble of Chicago, recorded numerous projects under his own name, including this relatively mainstream effort for the small Four Star label, featuring an early recorded appearance by the fine pianist Geri Allen. With the late, great bassist Fred Hopkins on hand, several of the pieces take on an Air-ish quality, especially the dreamy 'Love Song for a Rainy Monday' with Jarman on bass flute, which is very reminiscent of some of Henry Threadgill's beautiful dirges. Two standards are included, Sidney Bechet's charmingly raffish 'Petite Fleur' and Charlie Parker's 'Blues for Alice,' both performed in a straightforward and heartfelt manner. The closing composition is overtly shakuhachi-influenced (presumably also reflecting Jarman's Buddhist beliefs), with the leader's finely intoned flute wafting over Allen's synthesizer produced koto sounds and Hopkins' deep pluckings. Not necessarily a major effort and certainly not of the revolutionary aspect of his own Song For, Inheritance is still a solid, thoughtful album, and one deserving of a listen by fans of Jarman and the Art Ensemble."
 
Состав
Joseph Jarman — Flute, Flute (Bass), Sax (Soprano), Sax (Tenor)
Geri Allen — Piano, Synthesizer
Fred Hopkins — Bass
Famoudou Don Moye — Percussion
05:30
692
Нет комментариев. Ваш будет первым!