Вы используете незарегистрированную версию компонента "Вкладки"!

Поиск

(Free Jazz) Joe Morris (Petr Cancura, Luther Gray) - Wildlife - 2009, FLAC (image+.cue), lossless

(Free Jazz) Joe Morris (Petr Cancura, Luther Gray) - Wildlife - 2009, FLAC (image+.cue), lossless
Треклист:
Joe Morris / Wildlife
Жанр: Free Jazz
Страна-производитель диска: US
Год издания: 2009
Издатель (лейбл): AUM Fidelity
Номер по каталогу: AUM056
Аудиокодек: FLAC (*.flac)
Тип рипа: image+.cue
Битрейт аудио: lossless
Продолжительность: 56:42
Источник (релизер): cd
Наличие сканов в содержимом раздачи: нет
Треклист:
1 Geomantic 13:35
2 Thicket 19:21
3 Crow 10:06
4 Nettle 13:34
 
Лог создания рипа
Exact Audio Copy V1.0 beta 2 from 29. April 2011
EAC extraction logfile from 5. July 2012, 13:16
Joe Morris / Wildlife
Used drive : Optiarc DVD RW AD-7170A Adapter: 0 ID: 0
Read mode : Secure
Utilize accurate stream : Yes
Defeat audio cache : Yes
Make use of C2 pointers : No
Read offset correction : 48
Overread into Lead-In and Lead-Out : No
Fill up missing offset samples with silence : Yes
Delete leading and trailing silent blocks : No
Null samples used in CRC calculations : Yes
Used interface : Native Win32 interface for Win NT & 2000
Used output format : User Defined Encoder
Selected bitrate : 320 kBit/s
Quality : High
Add ID3 tag : No
Command line compressor : C:\Program Files\Exact Audio Copy\Flac\flac.exe
Additional command line options : -V -8 -T "Date=%year%" -T "Genre=%genre%" %source%
TOC of the extracted CD
Track | Start | Length | Start sector | End sector
---------------------------------------------------------
1 | 0:00.00 | 13:37.04 | 0 | 61278
2 | 13:37.04 | 19:22.33 | 61279 | 148461
3 | 32:59.37 | 10:08.33 | 148462 | 194094
4 | 43:07.70 | 13:34.08 | 194095 | 255152
Range status and errors
Selected range
Filename K:\ЕАС\Joe Morris - Wildlife.wav
Peak level 100.0 %
Extraction speed 2.1 X
Range quality 100.0 %
Test CRC 1BF80EF4
Copy CRC 1BF80EF4
Copy OK
No errors occurred
AccurateRip summary
Track 1 accurately ripped (confidence 1) [FF2C5C18] (AR v1)
Track 2 accurately ripped (confidence 1) [C2ED2303] (AR v1)
Track 3 accurately ripped (confidence 1) [360A439B] (AR v1)
Track 4 accurately ripped (confidence 1) [4D89E5B3] (AR v1)
All tracks accurately ripped
End of status report
==== Log checksum 841571F46AA0AB24D68216FECE76F81444C12073F95976F9974E7B7A87577BE1 ====
 
Содержание индексной карты (.CUE)
REM GENRE Jazz
REM DATE 2009
REM DISCID 3F0D4A04
REM COMMENT "ExactAudioCopy v1.0b2"
PERFORMER "Joe Morris"
TITLE "Wildlife"
FILE "Joe Morris - Wildlife.flac" WAVE
TRACK 01 AUDIO
TITLE "Geomantic"
PERFORMER "Joe Morris"
ISRC 000000000000
INDEX 01 00:00:00
TRACK 02 AUDIO
TITLE "Thicket"
PERFORMER "Joe Morris"
ISRC 000000000000
INDEX 00 13:35:04
INDEX 01 13:37:04
TRACK 03 AUDIO
TITLE "Crow"
PERFORMER "Joe Morris"
ISRC 000000000000
INDEX 00 32:57:37
INDEX 01 32:59:37
TRACK 04 AUDIO
TITLE "Nettle"
PERFORMER "Joe Morris"
ISRC 000000000000
INDEX 00 43:05:70
INDEX 01 43:07:70
Доп. информация: Recorded Riti Studios, Guilford, Connecticut, March 16, 2008.
 
Состав
Bass – Joe Morris
Drums – Luther Gray
Saxophone [Tenor And Alto] – Petr Cancura
Any questions -> support@pro-jazz.com. По всем вопросам пишите -> support@pro-jazz.com
02:11
169
Нет комментариев. Ваш будет первым!