Вы используете незарегистрированную версию компонента "Вкладки"!

Поиск

(free jazz) Joe McPhee Quintet - Common Threads [1996], FLAC (tracks+.cue), lossless

(free jazz) Joe McPhee Quintet - Common Threads [1996], FLAC (tracks+.cue), lossless
Треклист:

Joe McPhee Quintet - Common Threads [1996] /

Жанр: free jazz
Год издания диска: 1996
Издатель (лейбл): Deep Listening – DL 4-1996 CD
Аудиокодек: FLAC (*.flac)
Тип рипа: tracks+.cue
Битрейт аудио: lossless
Продолжительность: 59`18
Источник (релизер): what.cd
Наличие сканов в содержимом раздачи: нет
Bass – Michael Bisio
Cello – Loren Dempster
Trombone, Didgeridoo [Didjeridu], Performer [Little Instruments] – Stuart Dempster
Trumpet [Pocket], Tenor Saxophone, Soprano Saxophone – Joe McPhee
Violin, Erhu – Eyvind Kang
Recorded live at The Tractor Tavern, Seattle, Washington on October 19, 1995 at the 1995 Earshot Jazz Festival (executive director: John Gilbreath).
Треклист:
1 Part I: Spirit Traveler (For Don Cherry) 47:31
2 Part II: Michael's Cipher 4:06
3 Part III: Red Enchantment (For Joe McPhee, Sr.) 7:39
 
Лог создания рипа
X Lossless Decoder version 20110703 (135.1)
XLD extraction logfile from 2011-07-20 12:59:44 -0700
Joe McPhee Quintet / Common Threads
Used drive : MATSHITA DVD-R UJ-857D (revision KCVB)
Ripper mode : XLD Secure Ripper
Disable audio cache : OK for the drive with a cache less than 1375KiB
Make use of C2 pointers : NO
Read offset correction : 102
Max retry count : 100
Gap status : Analyzed, Appended
TOC of the extracted CD
Track | Start | Length | Start sector | End sector
---------------------------------------------------------
1 | 00:00:30 | 47:31:73 | 30 | 213927
2 | 47:32:28 | 04:06:16 | 213928 | 232393
3 | 51:38:44 | 07:39:74 | 232394 | 266892
AccurateRip Summary
Disc not found in AccurateRip DB.
All Tracks
Album gain : 7.93 dB
Peak : 1.000000
Statistics
Read error : 0
Jitter error (maybe fixed) : 0
Retry sector count : 0
Damaged sector count : 0
Track 01
Filename : /XLD/Joe McPhee Quintet - 1996 - Common Threads [FLAC]/01 Spirit Traveler (For Don Cherry).flac
/XLD/Joe McPhee Quintet - 1996 - Common Threads [MPEG-4 AAC (320)]/01 Spirit Traveler (For Don Cherry).m4a
Pre-gap length : 00:02:30
Track gain : 8.77 dB
Peak : 1.000000
CRC32 hash (test run) : D267BF47
CRC32 hash : D267BF47
CRC32 hash (skip zero) : 92946F9A
AccurateRip signature : C961DE49
->Track not present in AccurateRip database.
Statistics
Read error : 0
Jitter error (maybe fixed) : 0
Retry sector count : 0
Damaged sector count : 0
Track 02
Filename : /XLD/Joe McPhee Quintet - 1996 - Common Threads [FLAC]/02 Michael's Cipher.flac
/XLD/Joe McPhee Quintet - 1996 - Common Threads [MPEG-4 AAC (320)]/02 Michael's Cipher.m4a
Track gain : 7.51 dB
Peak : 0.443024
CRC32 hash (test run) : 2C51BC11
CRC32 hash : 2C51BC11
CRC32 hash (skip zero) : 24ED8FFE
AccurateRip signature : F46937EC
->Track not present in AccurateRip database.
Statistics
Read error : 0
Jitter error (maybe fixed) : 0
Retry sector count : 0
Damaged sector count : 0
Track 03
Filename : /XLD/Joe McPhee Quintet - 1996 - Common Threads [FLAC]/03 Red Enchantment (For Joe McPhee, Sr.).flac
/XLD/Joe McPhee Quintet - 1996 - Common Threads [MPEG-4 AAC (320)]/03 Red Enchantment (For Joe McPhee, Sr.).m4a
Track gain : 6.20 dB
Peak : 0.977692
CRC32 hash (test run) : C705DA6C
CRC32 hash : C705DA6C
CRC32 hash (skip zero) : 8E1BC13C
AccurateRip signature : 3CF8BA89
->Track not present in AccurateRip database.
Statistics
Read error : 0
Jitter error (maybe fixed) : 0
Retry sector count : 0
Damaged sector count : 0
No errors occurred
End of status report
 
Содержание индексной карты (.CUE)
TITLE "Common Threads"
PERFORMER "Joe McPhee Quintet"
REM GENRE "Jazz"
REM DATE "1996"
REM DISCID 190DE603
REM REPLAYGAIN_ALBUM_GAIN 7.93 dB
REM REPLAYGAIN_ALBUM_PEAK 1.000000
FILE "01 Spirit Traveler (For Don Cherry).flac" WAVE
TRACK 01 AUDIO
TITLE "Spirit Traveler (For Don Cherry)"
REM REPLAYGAIN_TRACK_GAIN 8.77 dB
REM REPLAYGAIN_TRACK_PEAK 1.000000
INDEX 00 00:00:00
INDEX 01 00:00:30
FILE "02 Michael's Cipher.flac" WAVE
TRACK 02 AUDIO
TITLE "Michael's Cipher"
REM REPLAYGAIN_TRACK_GAIN 7.51 dB
REM REPLAYGAIN_TRACK_PEAK 0.443024
INDEX 01 00:00:00
FILE "03 Red Enchantment (For Joe McPhee, Sr.).flac" WAVE
TRACK 03 AUDIO
TITLE "Red Enchantment (For Joe McPhee, Sr.)"
REM REPLAYGAIN_TRACK_GAIN 6.20 dB
REM REPLAYGAIN_TRACK_PEAK 0.977692
INDEX 01 00:00:00
другие релизы
Any questions -> support@pro-jazz.com. По всем вопросам пишите -> support@pro-jazz.com
19:19
161
Нет комментариев. Ваш будет первым!