Вы используете незарегистрированную версию компонента "Вкладки"!

Поиск

(free jazz) Jimmy Lyons, Sunny Murray - Jump Up 1980, FLAC (tracks+.cue) lossless

Треклист:


Jimmy Lyons, Sunny Murray - Jump Up 1980

Жанр: free jazz
Год издания диска: 1980
Издатель (лейбл): Hat Hut Records
Номер по каталогу: 6139
Аудио кодек: FLAC (*.flac)
Тип рипа: tracks+.cue
Битрейт аудио: lossless
Продолжительность: 1`06`18
Источник (релизер): what.cd
Наличие сканов в содержимом раздачи: нет
Треклист:
01 Jump Up.flac
02 Riffs #1.flac
03 Sea Treas.flac
04 Riffs #5.flac
05 Tortuga.flac
 
Лог создания рипа
X Lossless Decoder version 20100123 (115.4)
XLD extraction logfile from 2010-01-27 22:37:03 +0200
Jimmy Lyons & Sunny Murray Trio -w. John Lindberg / Jump Up
Used drive : MATSHITA DVD-R UJ-868 (revision KB19)
Use cdparanoia mode : YES (CDParanoia III 10.2 engine)
Disable audio cache : OK for the drive with cache less than 2750KB
Make use of C2 pointers : NO
Read offset correction : 102
Max retry count : 100
TOC of the extracted CD
Track | Start | Length | Start sector | End sector
---------------------------------------------------------
1 | 00:00:00 | 20:09:62 | 0 | 90736
2 | 20:09:62 | 22:41:13 | 90737 | 192824
3 | 42:51:00 | 08:55:12 | 192825 | 232961
4 | 51:46:12 | 06:44:38 | 232962 | 263299
5 | 58:30:50 | 07:47:25 | 263300 | 298349
Track 01
Filename : /Muzak/Jimmy Lyons & Sunny Murray Trio - 1994 - Jump Up/01 - Jump Up.flac
Pre-gap length : 00:02:00
CRC32 hash (test run) : A32514F1
CRC32 hash : A32514F1
CRC32 hash (skip zero) : 00A669BC
AccurateRip signature : CF53791D
->Track not present in AccurateRip database.
Statistics
Read error : 0
Skipped (treated as error) : 0
Edge jitter error (maybe fixed) : 0
Atom jitter error (maybe fixed) : 0
Drift error (maybe fixed) : 0
Dropped bytes error (maybe fixed) : 0
Duplicated bytes error (maybe fixed) : 0
Inconsistency in error sectors : 0
Track 02
Filename : /Muzak/Jimmy Lyons & Sunny Murray Trio - 1994 - Jump Up/02 - Riffs #1.flac
CRC32 hash (test run) : ADB9684F
CRC32 hash : ADB9684F
CRC32 hash (skip zero) : 5A659BC1
AccurateRip signature : 66FDCFE8
->Track not present in AccurateRip database.
Statistics
Read error : 0
Skipped (treated as error) : 0
Edge jitter error (maybe fixed) : 0
Atom jitter error (maybe fixed) : 0
Drift error (maybe fixed) : 0
Dropped bytes error (maybe fixed) : 0
Duplicated bytes error (maybe fixed) : 0
Inconsistency in error sectors : 0
Track 03
Filename : /Muzak/Jimmy Lyons & Sunny Murray Trio - 1994 - Jump Up/03 - Sea Treas.flac
CRC32 hash (test run) : 81EC35AB
CRC32 hash : 81EC35AB
CRC32 hash (skip zero) : EB94DB12
AccurateRip signature : 75255872
->Track not present in AccurateRip database.
Statistics
Read error : 0
Skipped (treated as error) : 0
Edge jitter error (maybe fixed) : 0
Atom jitter error (maybe fixed) : 0
Drift error (maybe fixed) : 0
Dropped bytes error (maybe fixed) : 0
Duplicated bytes error (maybe fixed) : 0
Inconsistency in error sectors : 0
Track 04
Filename : /Muzak/Jimmy Lyons & Sunny Murray Trio - 1994 - Jump Up/04 - Riffs #5.flac
CRC32 hash (test run) : 85E388AF
CRC32 hash : 85E388AF
CRC32 hash (skip zero) : D87F183C
AccurateRip signature : 1D1D312C
->Track not present in AccurateRip database.
Statistics
Read error : 0
Skipped (treated as error) : 0
Edge jitter error (maybe fixed) : 0
Atom jitter error (maybe fixed) : 0
Drift error (maybe fixed) : 0
Dropped bytes error (maybe fixed) : 0
Duplicated bytes error (maybe fixed) : 0
Inconsistency in error sectors : 0
Track 05
Filename : /Muzak/Jimmy Lyons & Sunny Murray Trio - 1994 - Jump Up/05 - Tortuga.flac
CRC32 hash (test run) : 9CF83E02
CRC32 hash : 9CF83E02
CRC32 hash (skip zero) : 79DA784E
AccurateRip signature : D22C1112
->Track not present in AccurateRip database.
Statistics
Read error : 0
Skipped (treated as error) : 0
Edge jitter error (maybe fixed) : 0
Atom jitter error (maybe fixed) : 0
Drift error (maybe fixed) : 0
Dropped bytes error (maybe fixed) : 0
Duplicated bytes error (maybe fixed) : 0
Inconsistency in error sectors : 0
No errors occurred
End of status report
 
Содержание индексной карты (.CUE)
TITLE "Jump Up"
PERFORMER "Jimmy Lyons & Sunny Murray Trio -w. John Lindberg"
REM GENRE "Jazz"
REM DATE 1980
FILE "01 - Jump Up.wav" WAVE
TRACK 01 AUDIO
TITLE "Jump Up"
INDEX 01 00:00:00
FILE "02 - Riffs #1.wav" WAVE
TRACK 02 AUDIO
TITLE "Riffs #1"
INDEX 01 00:00:00
FILE "03 - Sea Treas.wav" WAVE
TRACK 03 AUDIO
TITLE "Sea Treas"
INDEX 01 00:00:00
FILE "04 - Riffs #5.wav" WAVE
TRACK 04 AUDIO
TITLE "Riffs #5"
INDEX 01 00:00:00
FILE "05 - Tortuga.wav" WAVE
TRACK 05 AUDIO
TITLE "Tortuga"
INDEX 01 00:00:00
Доп. информация: http://allmusic.com/album/jump-up-r294579
 
Состав
Art Lange Liner Notes
John Lindberg Bass (Upright)
Jimmy Lyons Sax (Alto), Sax (Soprano)
Sunny Murray Drums
другие релизы
Any questions -> support@pro-jazz.com. По всем вопросам пишите -> support@pro-jazz.com
05:51
190
Нет комментариев. Ваш будет первым!