Вы используете незарегистрированную версию компонента "Вкладки"!

Поиск

(Free Jazz, Jazzcore) The Flying Luttenbachers - Trauma - 2008 (2001), FLAC (tracks+.cue) lossless

Треклист:
The Flying Luttenbachers / Trauma
Жанр: Free Jazz, Jazzcore
Страна-производитель диска: США
Год издания диска: 2008 (2001)
Издатель (лейбл): ugEXPLODE
Номер по каталогу: ug13
Страна: США
Аудио кодек: FLAC (*.flac)
Тип рипа: tracks+.cue
Битрейт аудио: lossless
Продолжительность: 1:08:46
Источник (релизер): вот.сиди
Наличие сканов в содержимом раздачи: нет
Треклист:
1 Trauma 1 7:44
2 Trauma 2 9:12
3 Trauma 3 3:44
4 Trauma 4 4:05
5 Trauma 5 7:29
6 Trauma 6 13:06
7 Trauma 7 1:55
8 Trauma 8 2:43
9 Trauma 9 6:31
10 Trauma 10 2:38
11 Trauma 11 9:18
Recorded on February 8, 2000 in Chicago, Illinois.
Originally released as a limited 2xLP in 2001. Now remastered for CD for the first time.
 
Лог создания рипа
Exact Audio Copy V0.99 prebeta 5 from 4. May 2009
EAC extraction logfile from 1. December 2009, 21:47
The Flying Luttenbachers / Trauma
Used drive : Optiarc DVD RW AD-7173A Adapter: 4 ID: 1
Read mode : Secure
Utilize accurate stream : Yes
Defeat audio cache : Yes
Make use of C2 pointers : No
Read offset correction : 48
Overread into Lead-In and Lead-Out : No
Fill up missing offset samples with silence : Yes
Delete leading and trailing silent blocks : No
Null samples used in CRC calculations : Yes
Used interface : Native Win32 interface for Win NT & 2000
Gap handling : Appended to previous track
Used output format : User Defined Encoder
Selected bitrate : 1024 kBit/s
Quality : High
Add ID3 tag : No
Command line compressor : C:\bin\FLAC\flac.exe
Additional command line options : -V -8 -T "artist=%a" -T "title=%t" -T "album=%g" -T "date=%y" -T "tracknumber=%n" -T "genre=%m" %s
TOC of the extracted CD
Track | Start | Length | Start sector | End sector
---------------------------------------------------------
1 | 0:00.00 | 7:45.09 | 0 | 34883
2 | 7:45.09 | 9:14.67 | 34884 | 76500
3 | 17:00.01 | 3:45.01 | 76501 | 93376
4 | 20:45.02 | 4:07.15 | 93377 | 111916
5 | 24:52.17 | 7:31.15 | 111917 | 145756
6 | 32:23.32 | 13:09.47 | 145757 | 204978
7 | 45:33.04 | 1:55.72 | 204979 | 213675
8 | 47:29.01 | 2:44.28 | 213676 | 226003
9 | 50:13.29 | 6:33.57 | 226004 | 255535
10 | 56:47.11 | 2:40.39 | 255536 | 267574
11 | 59:27.50 | 9:18.27 | 267575 | 309451
Track 1
Filename G:\F\Flying Luttenbachers (The)\2001 -- Trauma\01. The Flying Luttenbachers - Trauma 1.wav
Pre-gap length 0:00:02.00
Peak level 94.4 %
Track quality 100.0 %
Test CRC 7FCC3BE4
Copy CRC 7FCC3BE4
Accurately ripped (confidence 2) [D4B105F6]
Copy OK
Track 2
Filename G:\F\Flying Luttenbachers (The)\2001 -- Trauma\02. The Flying Luttenbachers - Trauma 2.wav
Pre-gap length 0:00:00.70
Peak level 94.4 %
Track quality 99.9 %
Test CRC 85306832
Copy CRC 85306832
Accurately ripped (confidence 2) [DBB344DA]
Copy OK
Track 3
Filename G:\F\Flying Luttenbachers (The)\2001 -- Trauma\03. The Flying Luttenbachers - Trauma 3.wav
Pre-gap length 0:00:02.26
Peak level 94.4 %
Track quality 100.0 %
Test CRC D3CA8A48
Copy CRC D3CA8A48
Accurately ripped (confidence 2) [B29DDCBD]
Copy OK
Track 4
Filename G:\F\Flying Luttenbachers (The)\2001 -- Trauma\04. The Flying Luttenbachers - Trauma 4.wav
Pre-gap length 0:00:00.59
Peak level 94.4 %
Track quality 100.0 %
Test CRC CEC4067D
Copy CRC CEC4067D
Accurately ripped (confidence 2) [4E5FD904]
Copy OK
Track 5
Filename G:\F\Flying Luttenbachers (The)\2001 -- Trauma\05. The Flying Luttenbachers - Trauma 5.wav
Pre-gap length 0:00:02.07
Peak level 94.4 %
Track quality 100.0 %
Test CRC C0947DDF
Copy CRC C0947DDF
Accurately ripped (confidence 2) [75FBB9AF]
Copy OK
Track 6
Filename G:\F\Flying Luttenbachers (The)\2001 -- Trauma\06. The Flying Luttenbachers - Trauma 6.wav
Pre-gap length 0:00:01.51
Peak level 94.4 %
Track quality 99.9 %
Test CRC 2B7D493B
Copy CRC 2B7D493B
Accurately ripped (confidence 2) [2720F78A]
Copy OK
Track 7
Filename G:\F\Flying Luttenbachers (The)\2001 -- Trauma\07. The Flying Luttenbachers - Trauma 7.wav
Pre-gap length 0:00:02.73
Peak level 94.4 %
Track quality 100.0 %
Test CRC 18812F3B
Copy CRC 18812F3B
Accurately ripped (confidence 2) [41035270]
Copy OK
Track 8
Filename G:\F\Flying Luttenbachers (The)\2001 -- Trauma\08. The Flying Luttenbachers - Trauma 8.wav
Pre-gap length 0:00:00.45
Peak level 77.2 %
Track quality 99.9 %
Test CRC A3DCEFDA
Copy CRC A3DCEFDA
Accurately ripped (confidence 2) [B89071D1]
Copy OK
Track 9
Filename G:\F\Flying Luttenbachers (The)\2001 -- Trauma\09. The Flying Luttenbachers - Trauma 9.wav
Pre-gap length 0:00:00.59
Peak level 94.4 %
Track quality 100.0 %
Test CRC 419C30CC
Copy CRC 0C97ADB5
Accurately ripped (confidence 2) [B6EA53D9]
Copy OK
Track 10
Filename G:\F\Flying Luttenbachers (The)\2001 -- Trauma\10. The Flying Luttenbachers - Trauma 10.wav
Pre-gap length 0:00:02.02
Peak level 94.4 %
Track quality 100.0 %
Test CRC 16A6A746
Copy CRC 16A6A746
Accurately ripped (confidence 2) [D2892322]
Copy OK
Track 11
Filename G:\F\Flying Luttenbachers (The)\2001 -- Trauma\11. The Flying Luttenbachers - Trauma 11.wav
Pre-gap length 0:00:01.54
Peak level 94.4 %
Track quality 100.0 %
Test CRC AB35B61B
Copy CRC AB35B61B
Accurately ripped (confidence 2) [F4658E01]
Copy OK
All tracks accurately ripped
No errors occurred
End of status report
------------------------------------------------------------
Exact Audio Copy V0.99 prebeta 5 from 4. May 2009
EAC extraction logfile from 1. December 2009, 22:24
The Flying Luttenbachers / Trauma
Used drive : Optiarc DVD RW AD-7173A Adapter: 4 ID: 1
Read mode : Secure
Utilize accurate stream : Yes
Defeat audio cache : Yes
Make use of C2 pointers : No
Read offset correction : 48
Overread into Lead-In and Lead-Out : No
Fill up missing offset samples with silence : Yes
Delete leading and trailing silent blocks : No
Null samples used in CRC calculations : Yes
Used interface : Native Win32 interface for Win NT & 2000
Gap handling : Appended to previous track
Used output format : User Defined Encoder
Selected bitrate : 1024 kBit/s
Quality : High
Add ID3 tag : No
Command line compressor : C:\bin\FLAC\flac.exe
Additional command line options : -V -8 -T "artist=%a" -T "title=%t" -T "album=%g" -T "date=%y" -T "tracknumber=%n" -T "genre=%m" %s
TOC of the extracted CD
Track | Start | Length | Start sector | End sector
---------------------------------------------------------
1 | 0:00.00 | 7:45.09 | 0 | 34883
2 | 7:45.09 | 9:14.67 | 34884 | 76500
3 | 17:00.01 | 3:45.01 | 76501 | 93376
4 | 20:45.02 | 4:07.15 | 93377 | 111916
5 | 24:52.17 | 7:31.15 | 111917 | 145756
6 | 32:23.32 | 13:09.47 | 145757 | 204978
7 | 45:33.04 | 1:55.72 | 204979 | 213675
8 | 47:29.01 | 2:44.28 | 213676 | 226003
9 | 50:13.29 | 6:33.57 | 226004 | 255535
10 | 56:47.11 | 2:40.39 | 255536 | 267574
11 | 59:27.50 | 9:18.27 | 267575 | 309451
Track 9
Filename G:\F\Flying Luttenbachers (The)\2001 -- Trauma\09. The Flying Luttenbachers - Trauma 9.wav
Pre-gap length 0:00:00.59
Peak level 94.4 %
Track quality 100.0 %
Test CRC 0C97ADB5
Copy CRC 0C97ADB5
Accurately ripped (confidence 2) [B6EA53D9]
Copy OK
All tracks accurately ripped
No errors occurred
End of status report
 
Содержание индексной карты (.CUE)
REM DATE 2001
REM DISCID 9C101E0B
REM COMMENT "ExactAudioCopy v0.99pb5"
CATALOG 3?87201>:0?08
PERFORMER "The Flying Luttenbachers"
TITLE "Trauma"
FILE "01. The Flying Luttenbachers - Trauma 1.wav" WAVE
TRACK 01 AUDIO
TITLE "Trauma 1"
PERFORMER "The Flying Luttenbachers"
ISRC 000000000000
INDEX 01 00:00:00
TRACK 02 AUDIO
TITLE "Trauma 2"
PERFORMER "The Flying Luttenbachers"
ISRC 000000000000
INDEX 00 07:44:14
FILE "02. The Flying Luttenbachers - Trauma 2.wav" WAVE
INDEX 01 00:00:00
TRACK 03 AUDIO
TITLE "Trauma 3"
PERFORMER "The Flying Luttenbachers"
ISRC 000000000000
INDEX 00 09:12:41
FILE "03. The Flying Luttenbachers - Trauma 3.wav" WAVE
INDEX 01 00:00:00
TRACK 04 AUDIO
TITLE "Trauma 4"
PERFORMER "The Flying Luttenbachers"
ISRC 000000000000
INDEX 00 03:44:17
FILE "04. The Flying Luttenbachers - Trauma 4.wav" WAVE
INDEX 01 00:00:00
TRACK 05 AUDIO
TITLE "Trauma 5"
PERFORMER "The Flying Luttenbachers"
ISRC 000000000000
INDEX 00 04:05:08
FILE "05. The Flying Luttenbachers - Trauma 5.wav" WAVE
INDEX 01 00:00:00
TRACK 06 AUDIO
TITLE "Trauma 6"
PERFORMER "The Flying Luttenbachers"
ISRC 000000000000
INDEX 00 07:29:39
FILE "06. The Flying Luttenbachers - Trauma 6.wav" WAVE
INDEX 01 00:00:00
TRACK 07 AUDIO
TITLE "Trauma 7"
PERFORMER "The Flying Luttenbachers"
ISRC 000000000000
INDEX 00 13:06:49
FILE "07. The Flying Luttenbachers - Trauma 7.wav" WAVE
INDEX 01 00:00:00
TRACK 08 AUDIO
TITLE "Trauma 8"
PERFORMER "The Flying Luttenbachers"
ISRC 000000000000
INDEX 00 01:55:27
FILE "08. The Flying Luttenbachers - Trauma 8.wav" WAVE
INDEX 01 00:00:00
TRACK 09 AUDIO
TITLE "Trauma 9"
PERFORMER "The Flying Luttenbachers"
ISRC 000000000000
INDEX 00 02:43:44
FILE "09. The Flying Luttenbachers - Trauma 9.wav" WAVE
INDEX 01 00:00:00
TRACK 10 AUDIO
TITLE "Trauma 10"
PERFORMER "The Flying Luttenbachers"
ISRC 000000000000
INDEX 00 06:31:55
FILE "10. The Flying Luttenbachers - Trauma 10.wav" WAVE
INDEX 01 00:00:00
TRACK 11 AUDIO
TITLE "Trauma 11"
PERFORMER "The Flying Luttenbachers"
ISRC 000000000000
INDEX 00 02:38:60
FILE "11. The Flying Luttenbachers - Trauma 11.wav" WAVE
INDEX 01 00:00:00
 
Лог проверки качества
AUDIOCHECKER v2.0 beta (build 457) - by Dester - opdester@freemail.hu
~~~~~~~~~~~~~~~~~~~~~~~~~~~~~~~~~~
-=== DO NOT EDIT THIS FILE! ===-
Path: ...\The Flying Luttenbachers - Trauma
01 -=- 01. The Flying Luttenbachers - Trauma 1.flac -=- CDDA (100%)
02 -=- 02. The Flying Luttenbachers - Trauma 2.flac -=- CDDA (100%)
03 -=- 03. The Flying Luttenbachers - Trauma 3.flac -=- CDDA (100%)
04 -=- 04. The Flying Luttenbachers - Trauma 4.flac -=- CDDA (99%)
05 -=- 05. The Flying Luttenbachers - Trauma 5.flac -=- CDDA (100%)
06 -=- 06. The Flying Luttenbachers - Trauma 6.flac -=- MPEG (95%)
07 -=- 07. The Flying Luttenbachers - Trauma 7.flac -=- CDDA (100%)
08 -=- 08. The Flying Luttenbachers - Trauma 8.flac -=- CDDA (100%)
09 -=- 09. The Flying Luttenbachers - Trauma 9.flac -=- CDDA (99%)
10 -=- 10. The Flying Luttenbachers - Trauma 10.flac -=- CDDA (99%)
11 -=- 11. The Flying Luttenbachers - Trauma 11.flac -=- CDDA (100%)
Summary 91,09% CDDA
236865284
 
Скриншот спектра частот
 
Состав
Kurt Johnson double bass
Weasel Walter drums
Michael Colligan saxophone
Any questions -> support@pro-jazz.com. По всем вопросам пишите -> support@pro-jazz.com
08:40
164
Нет комментариев. Ваш будет первым!