Вы используете незарегистрированную версию компонента "Вкладки"!

Поиск

(Free Jazz, Jazzcore, Prog Rock) The Flying Luttenbachers - Constructive Destruction (with Ken Vandermark et al.) - 1994, FLAC (tracks+.cue) lossless

Треклист:
The Flying Luttenbachers / Constructive Destruction
Жанр: Jazzcore, Prog Rock
Страна-производитель диска: US
Год издания диска: 1994
Издатель (лейбл): ugEXPLODE, Quinnah Records
Номер по каталогу: ug05, Q06
Аудио кодек: FLAC (*.flac)
Тип рипа: tracks+.cue
Битрейт аудио: lossless
Продолжительность: 42:50
Источник (релизер): what.cd (Iampineapple)
Наличие сканов в содержимом раздачи: нет
Треклист:
01 The Critic Stomp 4:18
02 Pointed Stick - 93B 6:33
03 The Indiscreet Notion 7:20
04 Fist Through Glass 2:58
05 Playing In The Dumpster 3:38
06 Eaten By Sharks 5:53
07 Brainstorm 5:29
Written-By - Chad Organ
08 Coffeehouse In Flames 6:37
 
Лог создания рипа
Exact Audio Copy V0.99 prebeta 3 from 28. July 2007
EAC extraction logfile from 6. May 2010, 22:54
The Flying Luttenbachers / Constructive Destruction
Used drive : TSSTcorpCDDVDW TS-L633A Adapter: 0 ID: 1
Read mode : Secure
Utilize accurate stream : Yes
Defeat audio cache : Yes
Make use of C2 pointers : No
Read offset correction : 6
Overread into Lead-In and Lead-Out : No
Fill up missing offset samples with silence : Yes
Delete leading and trailing silent blocks : No
Null samples used in CRC calculations : Yes
Used interface : Native Win32 interface for Win NT & 2000
Gap handling : Appended to previous track
Used output format : User Defined Encoder
Selected bitrate : 768 kBit/s
Quality : High
Add ID3 tag : No
Command line compressor : C:\Program Files\Exact Audio Copy\FLAC\FLAC.EXE
Additional command line options : -8 -V -T "ARTIST=%a" -T "TITLE=%t" -T "ALBUM=%g" -T "DATE=%y" -T "TRACKNUMBER=%n" -T "GENRE=%m" -T "COMMENT=%e" %s -o %d
TOC of the extracted CD
Track | Start | Length | Start sector | End sector
---------------------------------------------------------
1 | 0:00.00 | 4:18.53 | 0 | 19402
2 | 4:18.53 | 6:33.42 | 19403 | 48919
3 | 10:52.20 | 7:20.38 | 48920 | 81957
4 | 18:12.58 | 2:58.39 | 81958 | 95346
5 | 21:11.22 | 3:38.57 | 95347 | 111753
6 | 24:50.04 | 5:53.15 | 111754 | 138243
7 | 30:43.19 | 5:29.11 | 138244 | 162929
8 | 36:12.30 | 6:37.38 | 162930 | 192742
Track 1
Filename C:\EAC\The Flying Luttenbachers - Constructive Destruction FLAC\01 The Critic Stomp - The Flying Luttenbachers.wav
Pre-gap length 0:00:02.00
Peak level 98.8 %
Track quality 100.0 %
Test CRC CB33F8A3
Copy CRC CB33F8A3
Track not present in AccurateRip database
Copy OK
Track 2
Filename C:\EAC\The Flying Luttenbachers - Constructive Destruction FLAC\02 Pointed Stick-93B - The Flying Luttenbachers.wav
Peak level 98.8 %
Track quality 100.0 %
Test CRC 8489E1EE
Copy CRC 8489E1EE
Track not present in AccurateRip database
Copy OK
Track 3
Filename C:\EAC\The Flying Luttenbachers - Constructive Destruction FLAC\03 The Indiscreet Notion - The Flying Luttenbachers.wav
Pre-gap length 0:06:33.42
Peak level 98.8 %
Track quality 100.0 %
Test CRC 98B59571
Copy CRC 98B59571
Track not present in AccurateRip database
Copy OK
Track 4
Filename C:\EAC\The Flying Luttenbachers - Constructive Destruction FLAC\04 Fist Through Glass - The Flying Luttenbachers.wav
Pre-gap length 0:13:54.05
Peak level 98.8 %
Track quality 100.0 %
Test CRC 0A15C08D
Copy CRC 0A15C08D
Track not present in AccurateRip database
Copy OK
Track 5
Filename C:\EAC\The Flying Luttenbachers - Constructive Destruction FLAC\05 Playing in the Dumpster - The Flying Luttenbachers.wav
Pre-gap length 0:16:52.44
Peak level 98.8 %
Track quality 100.0 %
Test CRC 29B76F91
Copy CRC 29B76F91
Track not present in AccurateRip database
Copy OK
Track 6
Filename C:\EAC\The Flying Luttenbachers - Constructive Destruction FLAC\06 Eaten by Sharks - The Flying Luttenbachers.wav
Pre-gap length 0:20:31.26
Peak level 98.8 %
Track quality 100.0 %
Test CRC 82AC687E
Copy CRC 82AC687E
Track not present in AccurateRip database
Copy OK
Track 7
Filename C:\EAC\The Flying Luttenbachers - Constructive Destruction FLAC\07 Brainstorm(C.Organ) - The Flying Luttenbachers.wav
Pre-gap length 0:26:24.41
Peak level 98.8 %
Track quality 100.0 %
Test CRC 8FA8096E
Copy CRC 8FA8096E
Track not present in AccurateRip database
Copy OK
Track 8
Filename C:\EAC\The Flying Luttenbachers - Constructive Destruction FLAC\08 Coffeehouse in Flames - The Flying Luttenbachers.wav
Pre-gap length 0:31:53.52
Peak level 98.8 %
Track quality 99.9 %
Test CRC E9621F13
Copy CRC E9621F13
Track not present in AccurateRip database
Copy OK
None of the tracks are present in the AccurateRip database
No errors occurred
End of status report
 
Содержание индексной карты (.CUE)
REM DATE 1994
REM DISCID 640A0908
REM COMMENT "ExactAudioCopy v0.99pb3"
PERFORMER "The Flying Luttenbachers"
TITLE "Constructive Destruction"
FILE "01 The Critic Stomp - The Flying Luttenbachers.wav" WAVE
TRACK 01 AUDIO
TITLE "The Critic Stomp"
PERFORMER "The Flying Luttenbachers"
FLAGS DCP
INDEX 01 00:00:00
FILE "02 Pointed Stick-93B - The Flying Luttenbachers.wav" WAVE
TRACK 02 AUDIO
TITLE "Pointed Stick-93B"
PERFORMER "The Flying Luttenbachers"
FLAGS DCP
INDEX 01 00:00:00
FILE "03 The Indiscreet Notion - The Flying Luttenbachers.wav" WAVE
TRACK 03 AUDIO
TITLE "The Indiscreet Notion"
PERFORMER "The Flying Luttenbachers"
FLAGS DCP
INDEX 01 00:00:00
FILE "04 Fist Through Glass - The Flying Luttenbachers.wav" WAVE
TRACK 04 AUDIO
TITLE "Fist Through Glass"
PERFORMER "The Flying Luttenbachers"
FLAGS DCP
INDEX 01 00:00:00
FILE "05 Playing in the Dumpster - The Flying Luttenbachers.wav" WAVE
TRACK 05 AUDIO
TITLE "Playing in the Dumpster"
PERFORMER "The Flying Luttenbachers"
FLAGS DCP
INDEX 01 00:00:00
FILE "06 Eaten by Sharks - The Flying Luttenbachers.wav" WAVE
TRACK 06 AUDIO
TITLE "Eaten by Sharks"
PERFORMER "The Flying Luttenbachers"
FLAGS DCP
INDEX 01 00:00:00
FILE "07 Brainstorm(C.Organ) - The Flying Luttenbachers.wav" WAVE
TRACK 07 AUDIO
TITLE "Brainstorm(C.Organ)"
PERFORMER "The Flying Luttenbachers"
FLAGS DCP
INDEX 01 00:00:00
FILE "08 Coffeehouse in Flames - The Flying Luttenbachers.wav" WAVE
TRACK 08 AUDIO
TITLE "Coffeehouse in Flames"
PERFORMER "The Flying Luttenbachers"
FLAGS DCP
INDEX 01 00:00:00
Доп. информация: Recorded Oct. 12, 1993 at King Size, Chicago, except 'The Indiscreet Notion', recorded Dec. 3, 1993 at Czar Bar, Chicago
 
Об альбоме (сборнике)
Oh, those Luttenbachers. Just when everything settles down into a nice quiet drone of "progressive improv," where everybody's happy and traversing the edge of realization unto sleep, they have to show up and destroy the world. Recorded in 1993 in Chicago, this lineup is spiritually -- if not musically -- linked to John Zorn's Naked City. Ken Vandermark and Jeb Bishop, along with drummer Weasel Walter, guitarist Dylan Posa, and saxophonist Chad Organ, are a compositional and improvisational terror. Opening with the lovely "The Critic Stomp," the Luttenbachers create swirling combinations of rock energy's most organized moments and stack them against the individual desire to cut out of the universe by screaming your way through your instrument. This continues though the dynamic changes from time to time, as on "Fist Through Glass," where a particularly knotty melodic line is played by the saxophones and Bishop on trombone, and then illustrated with the most distorted guitar accompaniment ever recorded. Walter has to keep everything past triple-eight time, so furious are the tempos, and he is assisted by Vandermark's sense of impeccable timing to carry a line to the end and stop it on a dime. Other notable tracks are "Coffeehouse in Flames," pulled out on occasion by the Vandermark 5, and "Eaten By Sharks," with its wraparound bassline and tenor solos that literally make you wish you had been anywhere but here when the horns started bleating. This is awesome, this is fun, this is wake the dead music that actually might.
 
Состав
Bass Guitar, Trombone - Jeb Bishop
Drums - Weasel Walter
Electric Guitar - Dylan Posa
Saxophone [Tenor] - Chad Organ
Saxophone [Tenor], Clarinet [Bass, Bb] - Ken Vandermark
Any questions -> support@pro-jazz.com. По всем вопросам пишите -> support@pro-jazz.com
10:04
169
Нет комментариев. Ваш будет первым!