Вы используете незарегистрированную версию компонента "Вкладки"!

Поиск

(Free Jazz, Jazz-Rock, Acid Jazz, Modern Creative) Heernt - Locked in a Basement - 2006, FLAC (tracks+.cue), lossless

(Free Jazz, Jazz-Rock, Acid Jazz, Modern Creative) Heernt - Locked in a Basement - 2006, FLAC (tracks+.cue), lossless
Треклист:
Heernt / Locked in a Basement
Жанр: Free Jazz, Jazz-Rock, Acid Jazz, Modern Creative
Страна-производитель диска: USA
Год издания диска: 2006
Издатель (лейбл): Sunnyside/RazDaz
Номер по каталогу: SSC 4604
Страна: USA
Аудиокодек: FLAC (*.flac)
Тип рипа: tracks+.cue
Битрейт аудио: lossless
Продолжительность: 50:11
Источник (релизер): Мой рип
Наличие сканов в содержимом раздачи: да
Треклист:
1. Johnny2rocketime
2. Locked In A Basement
3. Brown Bird, Olives Sloth, Green Dragon
4. Nice
5. Aaaahh..
6. Make Me Dance, Make Me Dance
7. Sea Urchin. See Urchin Run
8. Quick Groove Rolling
9. Love Comma Mark
10. Pi 3.1415
11. Brawling On Epic Landforms
 
Лог создания рипа
Exact Audio Copy V1.0 beta 3 from 29. August 2011
EAC extraction logfile from 12. January 2012, 22:39
Heernt / Locked In A Basement
Used drive : TSSTcorpCD/DVDW SH-S182D Adapter: 0 ID: 0
Read mode : Secure
Utilize accurate stream : Yes
Defeat audio cache : Yes
Make use of C2 pointers : No
Read offset correction : 6
Overread into Lead-In and Lead-Out : No
Fill up missing offset samples with silence : Yes
Delete leading and trailing silent blocks : No
Null samples used in CRC calculations : Yes
Used interface : Native Win32 interface for Win NT & 2000
Gap handling : Appended to previous track
Used output format : User Defined Encoder
Selected bitrate : 1024 kBit/s
Quality : High
Add ID3 tag : No
Command line compressor : C:\Program Files\Exact Audio Copy\Flac\flac.exe
Additional command line options : -8 -V -T "ARTIST=%artist%" -T "TITLE=%title%" -T "ALBUM=%albumtitle%" -T "DATE=%year%" -T "TRACKNUMBER=%tracknr%" -T "GENRE=%genre%" -T "PERFORMER=%albuminterpret%" -T "COMPOSER=%composer%" %haslyrics%--tag-from-file=LYRICS="%lyricsfile%"%haslyrics% -T "ALBUMARTIST=%albumartist%" -T "ALBUM ARTIST=%albumartist%" -T "DISCNUMBER=%cdnumber%" -T "TOTALDISCS=%totalcds%" -T "TOTALTRACKS=%numtracks%" -T "COMMENT=%comment%" %source% -o %dest%
TOC of the extracted CD
Track | Start | Length | Start sector | End sector
---------------------------------------------------------
1 | 0:00.00 | 0:29.34 | 0 | 2208
2 | 0:29.34 | 3:47.18 | 2209 | 19251
3 | 4:16.52 | 6:12.15 | 19252 | 47166
4 | 10:28.67 | 5:58.03 | 47167 | 74019
5 | 16:26.70 | 4:50.18 | 74020 | 95787
6 | 21:17.13 | 4:38.66 | 95788 | 116703
7 | 25:56.04 | 4:33.33 | 116704 | 137211
8 | 30:29.37 | 3:28.22 | 137212 | 152833
9 | 33:57.59 | 3:41.59 | 152834 | 169467
10 | 37:39.43 | 6:24.39 | 169468 | 198306
11 | 44:04.07 | 6:11.09 | 198307 | 226140
Track 1
Filename D:\www.vasiliska.com\01 Johnny2Rocketime.wav
Pre-gap length 0:00:02.00
Peak level 96.6 %
Extraction speed 1.9 X
Track quality 100.0 %
Test CRC 215E7E16
Copy CRC 215E7E16
Cannot be verified as accurate (confidence 1) [33DEFF6E], AccurateRip returned [DB49AF44] (AR v2)
Copy OK
Track 2
Filename D:\www.vasiliska.com\02 Locked In A Basement.wav
Pre-gap length 0:00:01.38
Peak level 96.6 %
Extraction speed 4.2 X
Track quality 100.0 %
Test CRC E7BC8326
Copy CRC E7BC8326
Cannot be verified as accurate (confidence 1) [D7D3818F], AccurateRip returned [3FC17144] (AR v2)
Copy OK
Track 3
Filename D:\www.vasiliska.com\03 Brown Bird, Olive Sloth, Green Dragon.wav
Pre-gap length 0:00:01.53
Peak level 96.6 %
Extraction speed 4.6 X
Track quality 99.9 %
Test CRC 1A0BEBE0
Copy CRC 1A0BEBE0
Cannot be verified as accurate (confidence 1) [6E5A411E], AccurateRip returned [D7647E4C] (AR v2)
Copy OK
Track 4
Filename D:\www.vasiliska.com\04 Nice..wav
Pre-gap length 0:00:02.52
Peak level 96.6 %
Extraction speed 5.6 X
Track quality 100.0 %
Test CRC 4F8C403A
Copy CRC 4F8C403A
Cannot be verified as accurate (confidence 1) [B558CE02], AccurateRip returned [FE7F037B] (AR v2)
Copy OK
Track 5
Filename D:\www.vasiliska.com\05 Aaaahh...wav
Pre-gap length 0:00:02.00
Peak level 96.6 %
Extraction speed 5.9 X
Track quality 100.0 %
Test CRC 5E944FE8
Copy CRC 5E944FE8
Cannot be verified as accurate (confidence 1) [CDCE1442], AccurateRip returned [7DF9FD20] (AR v2)
Copy OK
Track 6
Filename D:\www.vasiliska.com\06 Make Me Dance, Make Me Dance.wav
Pre-gap length 0:00:01.68
Peak level 96.6 %
Extraction speed 5.6 X
Track quality 99.9 %
Test CRC 0295621C
Copy CRC 0295621C
Cannot be verified as accurate (confidence 1) [844B0E89], AccurateRip returned [B51B3472] (AR v2)
Copy OK
Track 7
Filename D:\www.vasiliska.com\07 Sea Urchin. See Urchin Run..wav
Pre-gap length 0:00:01.88
Peak level 96.6 %
Extraction speed 6.5 X
Track quality 100.0 %
Test CRC 36574BDF
Copy CRC 36574BDF
Cannot be verified as accurate (confidence 1) [EB10AFF1], AccurateRip returned [D3BF0B05] (AR v2)
Copy OK
Track 8
Filename D:\www.vasiliska.com\08 Quick Groove Rolling.wav
Pre-gap length 0:00:02.05
Peak level 96.6 %
Extraction speed 6.5 X
Track quality 100.0 %
Test CRC D3D40375
Copy CRC D3D40375
Cannot be verified as accurate (confidence 1) [5EE7E768], AccurateRip returned [4C0436E9] (AR v2)
Copy OK
Track 9
Filename D:\www.vasiliska.com\09 Love Comma Mark.wav
Pre-gap length 0:00:02.33
Peak level 96.6 %
Extraction speed 6.0 X
Track quality 99.9 %
Test CRC 2EAD1879
Copy CRC 2EAD1879
Cannot be verified as accurate (confidence 1) [E576DE8B], AccurateRip returned [56BF827B] (AR v2)
Copy OK
Track 10
Filename D:\www.vasiliska.com\10 Pi ~ 3.1415.wav
Pre-gap length 0:00:02.37
Peak level 96.6 %
Extraction speed 7.6 X
Track quality 100.0 %
Test CRC 51275285
Copy CRC 51275285
Cannot be verified as accurate (confidence 1) [816FC9FA], AccurateRip returned [0C72FB3C] (AR v2)
Copy OK
Track 11
Filename D:\www.vasiliska.com\11 Brawling On Epic Landforms.wav
Pre-gap length 0:00:04.34
Peak level 96.6 %
Extraction speed 7.9 X
Track quality 100.0 %
Test CRC CDDE714E
Copy CRC CDDE714E
Cannot be verified as accurate (confidence 1) [E8548AB2], AccurateRip returned [861EB671] (AR v2)
Copy OK
No tracks could be verified as accurate
You may have a different pressing from the one(s) in the database
No errors occurred
End of status report
---- CUETools DB Plugin V2.1.3
[CTDB TOCID: BLJepAHPZRVTWD9uQN6kjW0Fe9w-] disk not present in database, Submit result: BLJepAHPZRVTWD9uQN6kjW0Fe9w- has been uploaded
==== Log checksum D3EC5031E21EA3603B4FD55BB1B3F3FC55CBCC15759BD385E783568D586D658E ====
 
Содержание индексной карты (.CUE)
REM GENRE Jazz
REM DATE 2006
REM DISCID 950BC70B
REM COMMENT "ExactAudioCopy v1.0b3"
PERFORMER "Heernt"
TITLE "Locked In A Basement"
FILE "01 Johnny2Rocketime.wav" WAVE
TRACK 01 AUDIO
TITLE "Johnny2Rocketime"
PERFORMER "Heernt"
INDEX 01 00:00:00
TRACK 02 AUDIO
TITLE "Locked In A Basement"
PERFORMER "Heernt"
INDEX 00 00:28:05
FILE "02 Locked In A Basement.wav" WAVE
INDEX 01 00:00:00
TRACK 03 AUDIO
TITLE "Brown Bird, Olive Sloth, Green Dragon"
PERFORMER "Heernt"
INDEX 00 03:45:53
FILE "03 Brown Bird, Olive Sloth, Green Dragon.wav" WAVE
INDEX 01 00:00:00
TRACK 04 AUDIO
TITLE "Nice."
PERFORMER "Heernt"
INDEX 00 06:09:51
FILE "04 Nice..wav" WAVE
INDEX 01 00:00:00
TRACK 05 AUDIO
TITLE "Aaaahh.."
PERFORMER "Heernt"
INDEX 00 05:56:03
FILE "05 Aaaahh...wav" WAVE
INDEX 01 00:00:00
TRACK 06 AUDIO
TITLE "Make Me Dance, Make Me Dance"
PERFORMER "Heernt"
INDEX 00 04:48:42
FILE "06 Make Me Dance, Make Me Dance.wav" WAVE
INDEX 01 00:00:00
TRACK 07 AUDIO
TITLE "Sea Urchin. See Urchin Run."
PERFORMER "Heernt"
INDEX 00 04:37:00
FILE "07 Sea Urchin. See Urchin Run..wav" WAVE
INDEX 01 00:00:00
TRACK 08 AUDIO
TITLE "Quick Groove Rolling"
PERFORMER "Heernt"
INDEX 00 04:31:29
FILE "08 Quick Groove Rolling.wav" WAVE
INDEX 01 00:00:00
TRACK 09 AUDIO
TITLE "Love Comma Mark"
PERFORMER "Heernt"
INDEX 00 03:25:72
FILE "09 Love Comma Mark.wav" WAVE
INDEX 01 00:00:00
TRACK 10 AUDIO
TITLE "Pi ~ 3.1415"
PERFORMER "Heernt"
INDEX 00 03:39:31
FILE "10 Pi ~ 3.1415.wav" WAVE
INDEX 01 00:00:00
TRACK 11 AUDIO
TITLE "Brawling On Epic Landforms"
PERFORMER "Heernt"
INDEX 00 06:20:13
FILE "11 Brawling On Epic Landforms.wav" WAVE
INDEX 01 00:00:00
 
Об альбоме (сборнике)
When it comes to the avant-garde, jazz purists and bop snobs have no interest in seeing any shades of gray. They lump all avant-garde jazz together and will tell you -- with a straight face -- that there are no major stylistic differences between the Either/Orchestra and a free jazz firebrand like saxophonist Charles Gayle (which is as ridiculous as saying that there are no major stylistic differences between Aerosmith and Slayer or between De La Soul and N.W.A). But avant-garde jazz isn't just one sound -- it is many different sounds -- and Locked in a Basement points to the fact that the trio Heernt represent the more melodic side of avant-garde jazz. No knowledgeable listener will mistake this 2005 date for the atonal splendor that John Coltrane favored during the last few years of his life; that type of free jazz adheres to a scorched-earth policy and takes no prisoners. And at the same time, Locked in a Basement is far from an album of hard boppers playing the George and Ira Gershwin songbook. Heernt's material is mildly left of center and mildly avant-garde, but not far to the left. The material, although often quirky and eccentric, is not harsh, abrasive, or confrontational; an inside/outside approach (with the inside being more prominent than the outside) prevails on noteworthy tracks like the moody "Aaaahh..," the angular "quick groove rolling," the oddly funky "Nice.," and the clever "Johnny2Rocketime" (which, interestingly, uses the antiquated sound of a typewriter for percussive purposes). Heernt's performances are notably cohesive -- saxophonist Zac Colwell, electric bassist Neal Persiani, and drummer Mark Guiliana are very much in sync -- and while Locked in a Basement falls short of earth-shattering, it is still an enjoyable and worthwhile demonstration of what this threesome has to offer.
produced by mark guiliana
executive producers avishai cohen & ray jefford
recorded and mixed by zak rizvi at the den recording studio, whippany, nj
(except "brawling on epic landforms", recorded by mark guiliana in mark's basement, and "quick groove rolling" recorded and mixed by mark in his basement.)
additional recording by jimmy wilgus
all recording and mixing was done between august 14th and september 20th, 2005
mastered by carl cadden-james and jeff glixman at starcity recording company, bethlehem, pa
All songs written by Mark Guiliana, HEERNT Music, BMI 2005 except:
"Brown Bird, Olive Sloth, Green Dragon" written by Neal Persiani, Always Be Epic Music, ASCAP "Sea Urchin. See Urchin Run" written by Zac Colwell, A Turtle Is Safe Music, ASCAP
"Brawling On Epic Landforms" written by Neal Persiani and Zac Colwell, ASCAP 2005 and
"quick groove rolling" written by HEERNT, BMI/ASCAP 2005.
 
Состав
mark guiliana - drums, percussion, electronics, cajon, trombone & typewriter
neal persiani - electric bass & steel pan
zac colwell - tenor saxophone, juno-60, guitar, flute, clarinet, alto saxophone & voice
Any questions -> support@pro-jazz.com. По всем вопросам пишите -> support@pro-jazz.com
20:59
300
Нет комментариев. Ваш будет первым!