Вы используете незарегистрированную версию компонента "Вкладки"!

Поиск

(Free Jazz, Jazz-Funk) Phil Ranelin - The Time is Now! - 1974, APE (image+.cue), lossless

(Free Jazz, Jazz-Funk) Phil Ranelin - The Time is Now! - 1974, APE (image+.cue), lossless
Треклист:
Phil Ranelin - The Time is Now!
Жанр: Free Jazz, Jazz-Funk
Год выпуска диска: 1974
Производитель диска: 2001, Hefty Records HEFTY 032
Аудио кодек: APE
Тип рипа: image+.cue
Битрейт аудио: lossless
Продолжительность: 62:37
Трэклист:
1 The Time Is Now For Change 13:29
2 Time Is Running Out 4:37
Soloist [Alto] - Haroun El Nil
3 Of Times Gone By 8:41
Bass - Reggie Shoo Be Doo Fields*
Saxophone [Alto], Percussion - Haroun El Nil
Trumpet, Percussion - Charles Moore
4 Black Destiny 4:01
5 13th And Senate 6:02
6 He, The One We All Knew, Pt.1 3:09
7 The Time Is Now For Change (Outtake) 11:32
Clarinet [Bass], Saxophone [Alto] - Haroun El Nil
Soloist [Trumpet] - Marcus Belgrave
Trumpet, Percussion - Charles Moore
8 Time Is Running Out (Extended) 5:50
9 He The One We All Knew (Extended) 4:39
Bass - John Dana (tracks: 1, 3 to 6, 8, 9)
Drums, Percussion [Left Channel] - Bili Turner
Drums, Percussion [Right Channel] - George Davidson (tracks: 1, 3 to 9)
Flugelhorn, Percussion - Marcus Belgrave (tracks: 1 to 5, 7 to 9)
Piano, Percussion - Keith Vreeland
Saxophone [Tenor], Percussion - Wendell Harrison (tracks: 1 to 5, 7 to 9)
Trombone, Percussion - Phil Ranelin
Producer - Phil Ranelin
Mastered By - Roger Seibel
Mixed By, Technician [Restored By] - John McEntire
Other [Liner Notes] - Phil Ranelin
Engineer [Assisted By, Coordinated By] - John Hughes
Recorded By, Mixed By - Bob MeLoche
Photography - Hugh Grannom , Leni Sinclair , Marcus Belgrave , Norm Snyder
Written-By, Arranged By - Phil Ranelin
Artwork By [Original Album Design, Cover Artwork] - Bili Turner
Artwork By [Original Album Design] - Phil Ranelin
Artwork By [Original Typesetting & Layout] - Carolyn V. Crawford
2.,7.,8. was recorded November 11, 1973.
1.,3.,5. recorded April 27, 1974.
4.,6. recorded April 28, 1974 at Pioneer Studio.
Restored and mixed at Soma Studios.
Mastered at SAE Mastering.
Tape transfers performed at Electrical Audio, Sound Factory, and Soma Studios.
Catalogue number appears on Cover and CD as HEFTY32.
Reissue of the original TRCD 4006 / Tribe Vol.6 album on Tribe (in Discogs:
Tribe (3) from 1974.
Tracks 7, 8 and 9 were previous unreleased.
Доп. информация:
 
скрытый текст
AMG:
"Phil Ranelin's first record as a leader is worlds away from his later 1976 offering, Vibes From the Tribe. The Time Is Now is a vanguard jazz record, full of the spirit, determination, and innovation inspired by John Coltrane, Eric Dolphy, Cecil Taylor, Pharoah Sanders, and Archie Shepp. Recorded in 1973 and 1974 and released at the end of 1974, the set shows Ranelin to be an imposing composer and frightfully good trombonist. The original album contained six compositions that are a deep musical brew of avant-garde improvisation, hard bop jazz esthetics, and soulful melodic ideas that were superimposed as a jump off point for both harmonic and rhythmic (read: Latin) invention. The stamp of Detroit is all over this thing. Tracks like the title and "Black Destiny" reflect the anger and vision of the era, while moving it all in a positive musical direction. Soloists on the set include the rest of the Tribe collective — Marcus Belgrave and Wendell Harrison — as well as local players who deserved far more than they received in terms of national recognitions: bassist Reggie "Shoo-Be Doo" Fields, trumpeter Charles Moore, pianist Keith Vreeland, drummer Bill Turner, and others including Ranelin himself. The arrangements on The Time Is Now were ahead of their time, clustering a rhythm section as part of the horn's front line ("13th and Senate" and the title track) and a stylistic angularity that reflected both musical history and futurism in jazz and R&B ("Time Is Running Out" and "Times Gone By"). Tortoise drummer and mastermind has remixed and remastered the entire album (and added three bonus tracks). Its sound and fidelity have changed substantially, but not the spirit or the letter of the music — a remarkable achievement. The Time Is Now is a must for any vanguard jazz aficionado or anyone interested in the strange, rhythm-oriented evolution of Detroit music."
 
EAC extraction logfile
Exact Audio Copy V0.99 prebeta 4 from 23. January 2008
EAC extraction logfile from 6. May 2009, 21:12
Phil Ranelin / The Time is Now!
Used drive : HL-DT-STRW/DVD GCC-4242N Adapter: 1 ID: 0
Read mode : Secure
Utilize accurate stream : Yes
Defeat audio cache : Yes
Make use of C2 pointers : No
Read offset correction : 102
Overread into Lead-In and Lead-Out : No
Fill up missing offset samples with silence : Yes
Delete leading and trailing silent blocks : No
Null samples used in CRC calculations : Yes
Used interface : Native Win32 interface for Win NT & 2000
Used output format : Internal WAV Routines
Sample format : 44.100 Hz; 16 Bit; Stereo
TOC of the extracted CD
Track | Start | Length | Start sector | End sector
---------------------------------------------------------
1 | 0:00.00 | 13:34.05 | 0 | 61054
2 | 13:34.05 | 4:41.10 | 61055 | 82139
3 | 18:15.15 | 8:45.52 | 82140 | 121566
4 | 27:00.67 | 4:05.20 | 121567 | 139961
5 | 31:06.12 | 6:06.08 | 139962 | 167419
6 | 37:12.20 | 3:13.65 | 167420 | 181959
7 | 40:26.10 | 11:36.15 | 181960 | 234174
8 | 52:02.25 | 5:54.67 | 234175 | 260791
9 | 57:57.17 | 4:40.23 | 260792 | 281814
Range status and errors
Selected range
Filename C:\_\EAC_Out\Out\Phil Ranelin - The Time is Now!\Phil Ranelin - The Time is Now!.wav
Peak level 96.6 %
Range quality 100.0 %
Copy CRC 453FAC92
Copy OK
No errors occurred
AccurateRip summary
Track 1 not present in database
Track 2 not present in database
Track 3 not present in database
Track 4 not present in database
Track 5 not present in database
Track 6 not present in database
Track 7 not present in database
Track 8 not present in database
Track 9 not present in database
None of the tracks are present in the AccurateRip database
End of status report
По всем вопросам пишите личное сообщение пользователю M0p94ok.
17:44
221
Нет комментариев. Ваш будет первым!