Вы используете незарегистрированную версию компонента "Вкладки"!

Поиск

(Free Jazz, Jazz) David Murray & Pierre Dorge's New Jungle Orchestra - The Jazzpar Prize - 1992, FLAC (tracks+.cue), lossless

(Free Jazz, Jazz) David Murray & Pierre Dorge's New Jungle Orchestra - The Jazzpar Prize - 1992, FLAC (tracks+.cue), lossless
Треклист:
David Murray & Pierre Dørge’s New Jungle Orchestra / The Jazzpar Prize
Жанр: Free Jazz, Jazz
Страна-производитель диска: Germany
Год издания: 1992
Издатель (лейбл): Enja Records
Номер по каталогу: ENJA CD 7031-2
Аудиокодек: FLAC (*.flac)
Тип рипа: tracks+.cue
Битрейт аудио: lossless
Продолжительность: 54:35
Источник (релизер): Max Monteiro
Наличие сканов в содержимом раздачи: нет
Треклист:
1. Do Green Ants Dream? (Pierre Dørge) 9:01
2. David in Wonderland (Pierre Dørge) 7:18
3. Gospel Medley (David Murray) 6:16
4. In a Sentimental Mood (Duke Ellington) 9:23
5. Shakil Warriors (David Murray) 12:26
6. Song for Doni (David Murray) 10:11
 
Лог создания рипа
Exact Audio Copy V1.0 beta 3 from 29. August 2011
EAC extraction logfile from 10. February 2013, 10:36
David Murray & Pierre Dørge's New Jungle Orchestra / The Jazzpar Prize
Used drive : SlimtypeeNAU508 5 Adapter: 1 ID: 0
Read mode : Secure
Utilize accurate stream : Yes
Defeat audio cache : Yes
Make use of C2 pointers : No
Read offset correction : 6
Overread into Lead-In and Lead-Out : No
Fill up missing offset samples with silence : Yes
Delete leading and trailing silent blocks : No
Null samples used in CRC calculations : Yes
Used interface : Native Win32 interface for Win NT & 2000
Gap handling : Appended to previous track
Used output format : User Defined Encoder
Selected bitrate : 768 kBit/s
Quality : High
Add ID3 tag : No
Command line compressor : C:\Program Files (x86)\Exact Audio Copy\Flac\flac.exe
Additional command line options : -8 -V -T "ARTIST=%artist%" -T "TITLE=%title%" -T "ALBUM=%albumtitle%" -T "DATE=%year%" -T "TRACKNUMBER=%tracknr%" -T "GENRE=%genre%" -T "PERFORMER=%albuminterpret%" -T "COMPOSER=%composer%" %haslyrics%--tag-from-file=LYRICS="%lyricsfile%"%haslyrics% -T "ALBUMARTIST=%albumartist%" -T "DISCNUMBER=%cdnumber%" -T "TOTALDISCS=%totalcds%" -T "TOTALTRACKS=%numtracks%" -T "COMMENT=%comment%" %source% -o %dest%
TOC of the extracted CD
Track | Start | Length | Start sector | End sector
---------------------------------------------------------
1 | 0:00.32 | 9:01.00 | 32 | 40606
2 | 9:01.32 | 7:18.00 | 40607 | 73456
3 | 16:19.32 | 6:16.00 | 73457 | 101656
4 | 22:35.32 | 9:23.00 | 101657 | 143881
5 | 31:58.32 | 12:26.00 | 143882 | 199831
6 | 44:24.32 | 10:11.25 | 199832 | 245681
Track 1
Filename C:\EAC rips\01 - Do Green Ants Dream_.wav
Pre-gap length 0:00:02.32
Peak level 87.7 %
Extraction speed 1.0 X
Track quality 100.0 %
Test CRC D1FC9D60
Copy CRC D1FC9D60
Accurately ripped (confidence 4) [EF74B4EA] (AR v1)
Copy OK
Track 2
Filename C:\EAC rips\02 - David in Wonderland.wav
Pre-gap length 0:00:02.47
Peak level 83.2 %
Extraction speed 1.3 X
Track quality 100.0 %
Test CRC 2E1EB901
Copy CRC 2E1EB901
Accurately ripped (confidence 4) [9D0080ED] (AR v1)
Copy OK
Track 3
Filename C:\EAC rips\03 - Gospel Medley.wav
Pre-gap length 0:00:02.32
Peak level 94.4 %
Extraction speed 1.5 X
Track quality 100.0 %
Test CRC 47918CD2
Copy CRC 47918CD2
Accurately ripped (confidence 4) [8EE5AD35] (AR v1)
Copy OK
Track 4
Filename C:\EAC rips\04 - In a Sentimental Mood.wav
Pre-gap length 0:00:02.25
Peak level 44.2 %
Extraction speed 1.8 X
Track quality 100.0 %
Test CRC C52690A4
Copy CRC C52690A4
Accurately ripped (confidence 4) [C7DC9438] (AR v1)
Copy OK
Track 5
Filename C:\EAC rips\05 - Shakil Warriors.wav
Pre-gap length 0:00:02.52
Peak level 85.6 %
Extraction speed 1.9 X
Track quality 99.9 %
Test CRC 209173CC
Copy CRC 209173CC
Accurately ripped (confidence 4) [6BDEEE77] (AR v1)
Copy OK
Track 6
Filename C:\EAC rips\06 - Song for Doni.wav
Pre-gap length 0:00:03.57
Peak level 67.2 %
Extraction speed 2.2 X
Track quality 100.0 %
Test CRC 7FC36D15
Copy CRC 7FC36D15
Accurately ripped (confidence 4) [B8E6A315] (AR v1)
Copy OK
All tracks accurately ripped
No errors occurred
End of status report
---- CUETools DB Plugin V2.1.4
[CTDB TOCID: 9z4fWwZ6DEQ0MDbcPIAwQOKetUs-] disk not present in database
Submit result: 9z4fWwZ6DEQ0MDbcPIAwQOKetUs- has been uploaded
==== Log checksum 07E042E2DD1D768C9E27A75CB05DF3A628FFBC8FDC364FAFA215DCC6A0218E4C ====
 
Содержание индексной карты (.CUE)
REM GENRE Jazz
REM DATE 1992
REM DISCID 500CCB06
REM COMMENT "ExactAudioCopy v1.0b3"
PERFORMER "David Murray & Pierre Dørge's New Jungle Orchestra"
TITLE "The Jazzpar Prize"
FILE "01 - Do Green Ants Dream_.wav" WAVE
TRACK 01 AUDIO
TITLE "Do Green Ants Dream?"
PERFORMER "David Murray & Pierre Dørge's New Jungle Orchestra"
ISRC 000000000000
PREGAP 00:00:32
INDEX 01 00:00:00
TRACK 02 AUDIO
TITLE "David in Wonderland"
PERFORMER "David Murray & Pierre Dørge's New Jungle Orchestra"
ISRC 000000000000
INDEX 00 08:58:28
FILE "02 - David in Wonderland.wav" WAVE
INDEX 01 00:00:00
TRACK 03 AUDIO
TITLE "Gospel Medley"
PERFORMER "David Murray & Pierre Dørge's New Jungle Orchestra"
ISRC 000000000000
INDEX 00 07:15:43
FILE "03 - Gospel Medley.wav" WAVE
INDEX 01 00:00:00
TRACK 04 AUDIO
TITLE "In a Sentimental Mood"
PERFORMER "David Murray & Pierre Dørge's New Jungle Orchestra"
ISRC 000000000000
INDEX 00 06:13:50
FILE "04 - In a Sentimental Mood.wav" WAVE
INDEX 01 00:00:00
TRACK 05 AUDIO
TITLE "Shakil Warriors"
PERFORMER "David Murray & Pierre Dørge's New Jungle Orchestra"
ISRC 000000000000
INDEX 00 09:20:23
FILE "05 - Shakil Warriors.wav" WAVE
INDEX 01 00:00:00
TRACK 06 AUDIO
TITLE "Song for Doni"
PERFORMER "David Murray & Pierre Dørge's New Jungle Orchestra"
ISRC 000000000000
INDEX 00 12:22:18
FILE "06 - Song for Doni.wav" WAVE
INDEX 01 00:00:00
Доп. информация:
Recorded at Focus Recording, March 16th & 17th, 1991.
 
Состав
David Murray – Tenor Sax, Bass Clarinet
Pierre Dørge – Guitar
Horace Parlan – Piano
Harry Beckett – Trumpet, Flugelhorn
Per Jörgensen – Trumpet
Jörg Huke – Trombone
Jesper Zeuthen – Alto Sax, Bass Clarinet
Jacob Mygind – Tenor Sax, Soprano Sax
Irene Becker – Keyboards
Jens Skov Olsen – Bass
Audun Kleive – Drums
Donald Murray – Vocals on « Gospel Medley »
Any questions -> support@pro-jazz.com. По всем вопросам пишите -> support@pro-jazz.com
08:55
163
Нет комментариев. Ваш будет первым!