Вы используете незарегистрированную версию компонента "Вкладки"!

Поиск

(Free Jazz) Henry Grimes & Rashied Ali - Spirits Aloft - 2010, FLAC (tracks+.cue), lossless

Треклист:
Henry Grimes & Rashied Ali - Spirits Aloft
Жанр: Free Jazz
Год выпуска диска: 2010
Производитель диска: Porter Records (PRCD-4049)
Источник: вот.сиди (LiquidPlumber)
Аудио кодек: FLAC
Тип рипа: tracks+.cue
Битрейт аудио: lossless
Продолжительность: 54:20
Треклист:
1. Moments (Poem)
2. Rapid Transit
3. Oceans of the Clouds
4. Larger Astronomical Time
5. Arcopanorama
6. Priordained
7. The Arch Stairwells (Poem)
Henry Grimes violin (?), bass
Rashied Ali drums
 
Отчёт EAC
Exact Audio Copy V0.99 prebeta 5 from 4. May 2009
EAC extraction logfile from 11. August 2010, 11:42
Henry Grimes and Rashied Ali / Spirits Aloft
Used drive : HL-DT-STDVDRAM GH40N Adapter: 0 ID: 0
Read mode : Secure
Utilize accurate stream : Yes
Defeat audio cache : Yes
Make use of C2 pointers : No
Read offset correction : 667
Overread into Lead-In and Lead-Out : No
Fill up missing offset samples with silence : Yes
Delete leading and trailing silent blocks : No
Null samples used in CRC calculations : Yes
Used interface : Native Win32 interface for Win NT & 2000
Gap handling : Appended to previous track
Used output format : User Defined Encoder
Selected bitrate : 768 kBit/s
Quality : High
Add ID3 tag : No
Command line compressor : C:\Program Files (x86)\Exact Audio Copy\FLAC\FLAC.EXE
Additional command line options : -V -8 -T "artist=%a" -T "title=%t" -T "album=%g" -T "date=%y" -T "tracknumber=%n" -T "genre=%m" %s
TOC of the extracted CD
Track | Start | Length | Start sector | End sector
---------------------------------------------------------
1 | 0:00.00 | 0:34.14 | 0 | 2563
2 | 0:34.14 | 14:50.22 | 2564 | 69335
3 | 15:24.36 | 7:32.33 | 69336 | 103268
4 | 22:56.69 | 4:49.70 | 103269 | 125013
5 | 27:46.64 | 10:21.15 | 125014 | 171603
6 | 38:08.04 | 14:10.11 | 171604 | 235364
7 | 52:18.15 | 2:01.54 | 235365 | 244493
Track 1
Filename F:\EAC Rips\Henry Grimes and Rashied Ali - Spirits Aloft - 01 - Moments.wav
Pre-gap length 0:00:02.00
Peak level 67.0 %
Track quality 99.6 %
Test CRC E62D71B5
Copy CRC E62D71B5
Track not present in AccurateRip database
Copy OK
Track 2
Filename F:\EAC Rips\Henry Grimes and Rashied Ali - Spirits Aloft - 02 - Rapid Transit.wav
Peak level 100.0 %
Track quality 100.0 %
Test CRC 711EE6D7
Copy CRC 711EE6D7
Track not present in AccurateRip database
Copy OK
Track 3
Filename F:\EAC Rips\Henry Grimes and Rashied Ali - Spirits Aloft - 03 - Oceans Of The Clouds.wav
Peak level 85.7 %
Track quality 100.0 %
Test CRC 8D83A957
Copy CRC 8D83A957
Track not present in AccurateRip database
Copy OK
Track 4
Filename F:\EAC Rips\Henry Grimes and Rashied Ali - Spirits Aloft - 04 - Larger Astronomical Time.wav
Peak level 98.7 %
Track quality 100.0 %
Test CRC 6265A075
Copy CRC 6265A075
Track not present in AccurateRip database
Copy OK
Track 5
Filename F:\EAC Rips\Henry Grimes and Rashied Ali - Spirits Aloft - 05 - Arcopanorama.wav
Peak level 97.2 %
Track quality 100.0 %
Test CRC E6B72CDC
Copy CRC E6B72CDC
Track not present in AccurateRip database
Copy OK
Track 6
Filename F:\EAC Rips\Henry Grimes and Rashied Ali - Spirits Aloft - 06 - Priordained.wav
Peak level 98.7 %
Track quality 100.0 %
Test CRC F7B9CD0A
Copy CRC F7B9CD0A
Track not present in AccurateRip database
Copy OK
Track 7
Filename F:\EAC Rips\Henry Grimes and Rashied Ali - Spirits Aloft - 07 - The Arch Stairwells.wav
Peak level 99.1 %
Track quality 100.0 %
Test CRC BC0812F0
Copy CRC BC0812F0
Track not present in AccurateRip database
Copy OK
None of the tracks are present in the AccurateRip database
No errors occurred
End of status report
 
Отчёт Audiocheckera
AUDIOCHECKER v2.0 beta (build 457) - by Dester - opdester@freemail.hu
~~~~~~~~~~~~~~~~~~~~~~~~~~~~~~~~~~
-=== DO NOT EDIT THIS FILE! ===-
Path: ...\Henry Grimes & Rashied Ali - Spirits Aloft [FLAC]
1 -=- Henry Grimes and Rashied Ali - Spirits Aloft - 01 - Moments.flac -=- CDDA (100%)
2 -=- Henry Grimes and Rashied Ali - Spirits Aloft - 02 - Rapid Transit.flac -=- CDDA (100%)
3 -=- Henry Grimes and Rashied Ali - Spirits Aloft - 03 - Oceans Of The Clouds.flac -=- CDDA (100%)
4 -=- Henry Grimes and Rashied Ali - Spirits Aloft - 04 - Larger Astronomical Time.flac -=- CDDA (100%)
5 -=- Henry Grimes and Rashied Ali - Spirits Aloft - 05 - Arcopanorama.flac -=- CDDA (100%)
6 -=- Henry Grimes and Rashied Ali - Spirits Aloft - 06 - Priordained.flac -=- CDDA (100%)
7 -=- Henry Grimes and Rashied Ali - Spirits Aloft - 07 - The Arch Stairwells.flac -=- CDDA (100%)
Summary 100,00% CDDA
45768020
 
cue
REM GENRE Jazz
REM DATE 2010
REM DISCID 590CBB07
REM COMMENT "ExactAudioCopy v0.99pb5"
PERFORMER "Henry Grimes and Rashied Ali"
TITLE "Spirits Aloft"
FILE "Henry Grimes and Rashied Ali - Spirits Aloft - 01 - Moments.wav" WAVE
TRACK 01 AUDIO
TITLE "Moments"
PERFORMER "Henry Grimes and Rashied Ali"
INDEX 01 00:00:00
FILE "Henry Grimes and Rashied Ali - Spirits Aloft - 02 - Rapid Transit.wav" WAVE
TRACK 02 AUDIO
TITLE "Rapid Transit"
PERFORMER "Henry Grimes and Rashied Ali"
INDEX 01 00:00:00
FILE "Henry Grimes and Rashied Ali - Spirits Aloft - 03 - Oceans Of The Clouds.wav" WAVE
TRACK 03 AUDIO
TITLE "Oceans Of The Clouds"
PERFORMER "Henry Grimes and Rashied Ali"
INDEX 01 00:00:00
FILE "Henry Grimes and Rashied Ali - Spirits Aloft - 04 - Larger Astronomical Time.wav" WAVE
TRACK 04 AUDIO
TITLE "Larger Astronomical Time"
PERFORMER "Henry Grimes and Rashied Ali"
INDEX 01 00:00:00
FILE "Henry Grimes and Rashied Ali - Spirits Aloft - 05 - Arcopanorama.wav" WAVE
TRACK 05 AUDIO
TITLE "Arcopanorama"
PERFORMER "Henry Grimes and Rashied Ali"
INDEX 01 00:00:00
FILE "Henry Grimes and Rashied Ali - Spirits Aloft - 06 - Priordained.wav" WAVE
TRACK 06 AUDIO
TITLE "Priordained"
PERFORMER "Henry Grimes and Rashied Ali"
INDEX 01 00:00:00
FILE "Henry Grimes and Rashied Ali - Spirits Aloft - 07 - The Arch Stairwells.wav" WAVE
TRACK 07 AUDIO
TITLE "The Arch Stairwells"
PERFORMER "Henry Grimes and Rashied Ali"
INDEX 01 00:00:00
По всем вопросам пишите личное сообщение пользователю M0p94ok.
02:12
180
Нет комментариев. Ваш будет первым!