Вы используете незарегистрированную версию компонента "Вкладки"!

Поиск

(Free Jazz) Hamiet Bluiett - With Eyes Wide Open - 2000, FLAC (tracks+.cue), lossless

(Free Jazz) Hamiet Bluiett - With Eyes Wide Open - 2000, FLAC (tracks+.cue), lossless
Треклист:
Bluiett / With Eyes Wide Open
Жанр: Free Jazz
Страна-производитель диска: Canada
Год издания: 2000
Издатель (лейбл): Justin Time
Номер по каталогу: JUST 138-2
Аудиокодек: FLAC (*.flac)
Тип рипа: tracks+.cue
Битрейт аудио: lossless
Продолжительность: 58:04
Источник (релизер): Max Monteiro
Наличие сканов в содержимом раздачи: нет
Треклист:
1. Africa / Island Song (Bluiett) 5:35
2. String Me a Song Everlasting (Don Pullen) 7:50
3. Monk & Wes (Bluiett) 4:51
4. Enum (Bluiett) 8:43
5. Song for Camille (aka Ballad for the Black Woman) (Bluiett) 9:46
6. 1529 Gunn Street (Don Pullen) 3:48
7. Mystery Tune (Bluiett) 6:34
8. Deb (Bluiett) 7:54
9. (With Eyes) Wide Open (Bluiett) 3:03
 
Лог создания рипа
Exact Audio Copy V1.0 beta 3 from 29. August 2011
EAC extraction logfile from 19. February 2013, 19:55
Bluiett / With Eyes Wide Open
Used drive : SlimtypeeNAU508 5 Adapter: 1 ID: 0
Read mode : Secure
Utilize accurate stream : Yes
Defeat audio cache : Yes
Make use of C2 pointers : No
Read offset correction : 6
Overread into Lead-In and Lead-Out : No
Fill up missing offset samples with silence : Yes
Delete leading and trailing silent blocks : No
Null samples used in CRC calculations : Yes
Used interface : Native Win32 interface for Win NT & 2000
Gap handling : Appended to previous track
Used output format : User Defined Encoder
Selected bitrate : 768 kBit/s
Quality : High
Add ID3 tag : No
Command line compressor : C:\Program Files (x86)\Exact Audio Copy\Flac\flac.exe
Additional command line options : -8 -V -T "ARTIST=%artist%" -T "TITLE=%title%" -T "ALBUM=%albumtitle%" -T "DATE=%year%" -T "TRACKNUMBER=%tracknr%" -T "GENRE=%genre%" -T "PERFORMER=%albuminterpret%" -T "COMPOSER=%composer%" %haslyrics%--tag-from-file=LYRICS="%lyricsfile%"%haslyrics% -T "ALBUMARTIST=%albumartist%" -T "DISCNUMBER=%cdnumber%" -T "TOTALDISCS=%totalcds%" -T "TOTALTRACKS=%numtracks%" -T "COMMENT=%comment%" %source% -o %dest%
TOC of the extracted CD
Track | Start | Length | Start sector | End sector
---------------------------------------------------------
1 | 0:00.00 | 5:34.68 | 0 | 25117
2 | 5:34.68 | 7:49.58 | 25118 | 60350
3 | 13:24.51 | 4:50.71 | 60351 | 82171
4 | 18:15.47 | 8:43.01 | 82172 | 121397
5 | 26:58.48 | 9:45.72 | 121398 | 165344
6 | 36:44.45 | 3:48.23 | 165345 | 182467
7 | 40:32.68 | 6:33.59 | 182468 | 212001
8 | 47:06.52 | 7:53.74 | 212002 | 247550
9 | 55:00.51 | 3:03.06 | 247551 | 261281
Track 1
Filename C:\EAC rips\01 - Africa - Island Song.wav
Pre-gap length 0:00:02.00
Peak level 98.6 %
Extraction speed 1.1 X
Track quality 100.0 %
Test CRC 9AA9E1E4
Copy CRC 9AA9E1E4
Cannot be verified as accurate (confidence 1) [6014D401], AccurateRip returned [F0F1EAAA] (AR v2)
Copy OK
Track 2
Filename C:\EAC rips\02 - Sing Me a Song Everlasting.wav
Pre-gap length 0:00:03.58
Peak level 95.5 %
Extraction speed 1.2 X
Track quality 99.9 %
Test CRC 94A8E49F
Copy CRC 94A8E49F
Cannot be verified as accurate (confidence 1) [32390894], AccurateRip returned [83911035] (AR v2)
Copy OK
Track 3
Filename C:\EAC rips\03 - Monk & Wes.wav
Pre-gap length 0:00:04.10
Peak level 96.6 %
Extraction speed 1.4 X
Track quality 100.0 %
Test CRC 2F104516
Copy CRC 2F104516
Cannot be verified as accurate (confidence 1) [EF873461], AccurateRip returned [6542BC1C] (AR v2)
Copy OK
Track 4
Filename C:\EAC rips\04 - Enum.wav
Pre-gap length 0:00:04.40
Peak level 92.3 %
Extraction speed 1.7 X
Track quality 100.0 %
Test CRC 322BCF6F
Copy CRC 322BCF6F
Cannot be verified as accurate (confidence 1) [59E1F8D9], AccurateRip returned [0FA3B795] (AR v2)
Copy OK
Track 5
Filename C:\EAC rips\05 - Song for Camille (aka Ballad for the Black Woman).wav
Pre-gap length 0:00:05.05
Peak level 81.3 %
Extraction speed 1.8 X
Track quality 99.9 %
Test CRC 031A18BB
Copy CRC 031A18BB
Cannot be verified as accurate (confidence 1) [88CE4824], AccurateRip returned [4842F709] (AR v2)
Copy OK
Track 6
Filename C:\EAC rips\06 - 1529 Gunn Street.wav
Pre-gap length 0:00:05.25
Peak level 99.0 %
Extraction speed 1.5 X
Track quality 100.0 %
Test CRC 925A0E29
Copy CRC 925A0E29
Cannot be verified as accurate (confidence 1) [D3B93D6F], AccurateRip returned [F18F472A] (AR v2)
Copy OK
Track 7
Filename C:\EAC rips\07 - Mystery Tune.wav
Pre-gap length 0:00:03.63
Peak level 99.9 %
Extraction speed 1.8 X
Track quality 100.0 %
Test CRC 9AC34B00
Copy CRC 9AC34B00
Cannot be verified as accurate (confidence 1) [1E2C96D7], AccurateRip returned [1B33959B] (AR v2)
Copy OK
Track 8
Filename C:\EAC rips\08 - Deb.wav
Pre-gap length 0:00:04.37
Peak level 99.6 %
Extraction speed 2.2 X
Track quality 100.0 %
Test CRC 5903CBA0
Copy CRC 5903CBA0
Cannot be verified as accurate (confidence 1) [ED1C275A], AccurateRip returned [CD544FAB] (AR v2)
Copy OK
Track 9
Filename C:\EAC rips\09 - (With Eyes) Wide Open.wav
Pre-gap length 0:00:04.68
Peak level 94.3 %
Extraction speed 2.0 X
Track quality 100.0 %
Test CRC 692BB86D
Copy CRC 692BB86D
Cannot be verified as accurate (confidence 1) [4CF1F020], AccurateRip returned [D63F18DD] (AR v2)
Copy OK
No tracks could be verified as accurate
You may have a different pressing from the one(s) in the database
No errors occurred
End of status report
---- CUETools DB Plugin V2.1.4
[CTDB TOCID: lPVTt7IyH8acS93n6I_.i2n1_bY-] found
Submit result: lPVTt7IyH8acS93n6I_.i2n1_bY- has been confirmed
Track | CTDB Status
1 | (1/1) Accurately ripped
2 | (1/1) Accurately ripped
3 | (1/1) Accurately ripped
4 | (1/1) Accurately ripped
5 | (1/1) Accurately ripped
6 | (1/1) Accurately ripped
7 | (1/1) Accurately ripped
8 | (1/1) Accurately ripped
9 | (1/1) Accurately ripped
==== Log checksum 18DDEC18389890AA9F6AF3CCF7029E65EABE08B7EC7529939E0642C3DD97EFBD ====
 
Содержание индексной карты (.CUE)
REM GENRE Jazz
REM DATE 2000
REM DISCID 690D9B09
REM COMMENT "ExactAudioCopy v1.0b3"
PERFORMER "Bluiett"
TITLE "With Eyes Wide Open"
FILE "01 - Africa - Island Song.wav" WAVE
TRACK 01 AUDIO
TITLE "Africa / Island Song"
PERFORMER "Bluiett"
ISRC CAJ220019900
INDEX 01 00:00:00
TRACK 02 AUDIO
TITLE "Sing Me a Song Everlasting"
PERFORMER "Bluiett"
ISRC CAJ220019910
INDEX 00 05:31:10
FILE "02 - Sing Me a Song Everlasting.wav" WAVE
INDEX 01 00:00:00
TRACK 03 AUDIO
TITLE "Monk & Wes"
PERFORMER "Bluiett"
ISRC CAJ220019920
INDEX 00 07:45:48
FILE "03 - Monk & Wes.wav" WAVE
INDEX 01 00:00:00
TRACK 04 AUDIO
TITLE "Enum"
PERFORMER "Bluiett"
ISRC CAJ220019930
INDEX 00 04:46:31
FILE "04 - Enum.wav" WAVE
INDEX 01 00:00:00
TRACK 05 AUDIO
TITLE "Song for Camille (aka Ballad for the Black Woman)"
PERFORMER "Bluiett"
ISRC CAJ220019940
INDEX 00 08:37:71
FILE "05 - Song for Camille (aka Ballad for the Black Woman).wav" WAVE
INDEX 01 00:00:00
TRACK 06 AUDIO
TITLE "1529 Gunn Street"
PERFORMER "Bluiett"
ISRC CAJ220019950
INDEX 00 09:40:47
FILE "06 - 1529 Gunn Street.wav" WAVE
INDEX 01 00:00:00
TRACK 07 AUDIO
TITLE "Mystery Tune"
PERFORMER "Bluiett"
ISRC CAJ220019960
INDEX 00 03:44:35
FILE "07 - Mystery Tune.wav" WAVE
INDEX 01 00:00:00
TRACK 08 AUDIO
TITLE "Deb"
PERFORMER "Bluiett"
ISRC CAJ220019970
INDEX 00 06:29:22
FILE "08 - Deb.wav" WAVE
INDEX 01 00:00:00
TRACK 09 AUDIO
TITLE "(With Eyes) Wide Open"
PERFORMER "Bluiett"
ISRC CAJ220019980
INDEX 00 07:49:06
FILE "09 - (With Eyes) Wide Open.wav" WAVE
INDEX 01 00:00:00
Доп. информация:
Recorded at Avatar Studios, New York, November 22, 1999.
 
Состав
Bluiett – Baritone Saxophone
Nasheet Waits – Drums
Jaribu Shahid – Bass
Ed Cherry – Guitar
Any questions -> support@pro-jazz.com. По всем вопросам пишите -> support@pro-jazz.com
09:16
275
Нет комментариев. Ваш будет первым!