Вы используете незарегистрированную версию компонента "Вкладки"!

Поиск

(Free Jazz) Hamiet Bluiett, D.D. Jackson, Mor Thiam - Join Us - 1999, FLAC (tracks+.cue) lossless

Треклист:
Hamiet Bluiett, D.D. Jackson, Mor Thiam / Join Us
Жанр: Free Jazz
Страна-производитель диска: US
Год издания диска: 1999
Издатель (лейбл): Justin Time
Номер по каталогу: JUST 124-2
Страна: US
Аудио кодек: FLAC (*.flac)
Тип рипа: tracks+.cue
Битрейт аудио: lossless
Продолжительность: 51:05
Источник (релизер): waffles.fm
Наличие сканов в содержимом раздачи: нет
Треклист:
1 Papa 7:30
2 Ayse 5:55
3 Is There A Problem? 4:50
4 Drum Millenium 3:10
5 A Little Calypso 5:07
6 Pentium II Blues 2:44
7 My Mother 4:12
8 One Night 8:16
9 LXO 1:45
10 Join Us / Get Happy 7:11
 
Лог создания рипа
Отсутствует
 
Содержание индексной карты (.CUE)
REM DISCID 810BF90A
REM COMMENT "ExactAudioCopy v0.95b2"
TITLE "Join Us"
PERFORMER "Bluiett, Jackson, Thiam"
REM DATE 1999
REM GENRE "Jazz"
FILE "01. Papa.flac" WAVE
TRACK 01 AUDIO
TITLE "Papa"
PERFORMER "Bluiett, Jackson, Thiam"
INDEX 01 00:00:00
FILE "02. Ayse.flac" WAVE
TRACK 02 AUDIO
TITLE "Ayse"
PERFORMER "Bluiett, Jackson, Thiam"
INDEX 01 00:00:00
FILE "03. Is There A Problem_.flac" WAVE
TRACK 03 AUDIO
TITLE "Is There A Problem?"
PERFORMER "Bluiett, Jackson, Thiam"
INDEX 01 00:00:00
FILE "04. Drum Millenium.flac" WAVE
TRACK 04 AUDIO
TITLE "Drum Millenium"
PERFORMER "Bluiett, Jackson, Thiam"
INDEX 01 00:00:00
FILE "05. A Little Calypso.flac" WAVE
TRACK 05 AUDIO
TITLE "A Little Calypso"
PERFORMER "Bluiett, Jackson, Thiam"
INDEX 01 00:00:00
FILE "06. Pentium II Blues.flac" WAVE
TRACK 06 AUDIO
TITLE "Pentium II Blues"
PERFORMER "Bluiett, Jackson, Thiam"
INDEX 01 00:00:00
FILE "07. My Mother.flac" WAVE
TRACK 07 AUDIO
TITLE "My Mother"
PERFORMER "Bluiett, Jackson, Thiam"
INDEX 01 00:00:00
FILE "08. One Night.flac" WAVE
TRACK 08 AUDIO
TITLE "One Night"
PERFORMER "Bluiett, Jackson, Thiam"
INDEX 01 00:00:00
FILE "09. LXO.flac" WAVE
TRACK 09 AUDIO
TITLE "LXO"
PERFORMER "Bluiett, Jackson, Thiam"
INDEX 01 00:00:00
FILE "10. Join Us _ Get Happy.flac" WAVE
TRACK 10 AUDIO
TITLE "Join Us / Get Happy"
PERFORMER "Bluiett, Jackson, Thiam"
INDEX 01 00:00:00
 
Лог проверки качества
d:\>d:\aucdtect -d/-m0 d:\zzz\*.wav
auCDtect: CD records authenticity detector, version 0.8.2
Copyright (c) 2004 Oleg Berngardt. All rights reserved.
Copyright (c) 2004 Alexander Djourik. All rights reserved.
------------------------------------------------------------
Processing file: [01. Papa.wav]
------------------------------------------------------------
This track looks like CDDA with probability 100%
------------------------------------------------------------
Processing file: [02. Ayse.wav]
------------------------------------------------------------
This track looks like CDDA with probability 99%
------------------------------------------------------------
Processing file: [03. Is There A Problem_.wav]
------------------------------------------------------------
This track looks like CDDA with probability 100%
------------------------------------------------------------
Processing file: [04. Drum Millenium.wav]
------------------------------------------------------------
This track looks like CDDA with probability 100%
------------------------------------------------------------
Processing file: [05. A Little Calypso.wav]
------------------------------------------------------------
This track looks like CDDA with probability 100%
------------------------------------------------------------
Processing file: [06. Pentium II Blues.wav]
------------------------------------------------------------
This track looks like CDDA with probability 100%
------------------------------------------------------------
Processing file: [07. My Mother.wav]
------------------------------------------------------------
This track looks like CDDA with probability 100%
------------------------------------------------------------
Processing file: [08. One Night.wav]
------------------------------------------------------------
This track looks like CDDA with probability 100%
------------------------------------------------------------
Processing file: [09. LXO.wav]
------------------------------------------------------------
This track looks like CDDA with probability 100%
------------------------------------------------------------
Processing file: [10. Join Us _ Get Happy.wav]
------------------------------------------------------------
This track looks like CDDA with probability 100%
------------------------------------------------------------
Final Conclusion:
------------------------------------------------------------
These tracks looks like CDDA with probability 100%
 
Скриншот спектра частот
Доп. информация:
 
Album Info
Recorded live to two track at System II Studios, Brooklyn, New York, October 29th and 30th, 1998.
Edited at Studio Tempo in Montreal.
Mastered at SNB Mastering, Montreal, Canada.
Composed By - D.D. Jackson (tracks: 2, 5, 6, 8, 10) , Hamiet Bluiett (tracks: 3, 9) , Mor Thiam (tracks: 1, 4, 7)
Producer - Hamiet Bluiett
Producer [Assistant] - D.D. Jackson , Mor Thiam
 
Состав
Djembe, Vocals - Mor Thiam
Piano, Bass [Keyboard], Synthesizer, Organ - D.D. Jackson
Saxophone [Baritone], Flute [Wood], Clarinet [Contra Alto], Voice [Speaking] - Hamiet Bluiett
По всем вопросам пишите личное сообщение пользователю M0p94ok.
09:03
337
Нет комментариев. Ваш будет первым!