Вы используете незарегистрированную версию компонента "Вкладки"!

Поиск

(Free Jazz) Hal Russell's Chemical Feast - Elixir - 2001, FLAC (image+.cue), lossless

(Free Jazz) Hal Russell's Chemical Feast - Elixir - 2001, FLAC (image+.cue), lossless
Треклист:
Hal Russell's Chemical Feast / Elixir
Жанр: Free Jazz
Страна-производитель диска: US
Год издания: 2001
Издатель (лейбл): Atavistic
Номер по каталогу: UMS/ALP203CD
Аудиокодек: FLAC (*.flac)
Тип рипа: image+.cue
Битрейт аудио: lossless
Продолжительность: 69:55
Источник (релизер): cd
Наличие сканов в содержимом раздачи: нет
Треклист:
First Set:
1 Broadway Bues 15:57
2 Manas 6:15
3 Four Free 10:28
Second Set:
4 Four Winds 15:27
5 Kahoutek 7:20
6 March Of The Cellulite Goddesses 7:25
7 Airborne 7:02
 
Лог создания рипа
Exact Audio Copy V1.0 beta 2 from 29. April 2011
EAC extraction logfile from 22. November 2012, 14:50
Hal Russell's Chemical Feast / Elixir
Used drive : Optiarc DVD RW AD-7170A Adapter: 0 ID: 0
Read mode : Secure
Utilize accurate stream : Yes
Defeat audio cache : Yes
Make use of C2 pointers : No
Read offset correction : 48
Overread into Lead-In and Lead-Out : No
Fill up missing offset samples with silence : Yes
Delete leading and trailing silent blocks : No
Null samples used in CRC calculations : Yes
Used interface : Native Win32 interface for Win NT & 2000
Used output format : User Defined Encoder
Selected bitrate : 320 kBit/s
Quality : High
Add ID3 tag : No
Command line compressor : C:\Program Files\Exact Audio Copy\Flac\flac.exe
Additional command line options : -V -8 -T "Date=%year%" -T "Genre=%genre%" %source%
TOC of the extracted CD
Track | Start | Length | Start sector | End sector
---------------------------------------------------------
1 | 0:00.00 | 15:57.28 | 0 | 71802
2 | 15:57.28 | 6:15.49 | 71803 | 99976
3 | 22:13.02 | 10:28.69 | 99977 | 147145
4 | 32:41.71 | 15:26.49 | 147146 | 216644
5 | 48:08.45 | 7:20.05 | 216645 | 249649
6 | 55:28.50 | 7:25.09 | 249650 | 283033
7 | 62:53.59 | 7:01.39 | 283034 | 314647
Range status and errors
Selected range
Filename K:\ЕАС\Hal Russell's Chemical Feast - Elixir.wav
Peak level 99.8 %
Extraction speed 2.2 X
Range quality 99.9 %
Test CRC 5D10284B
Copy CRC 5D10284B
Copy OK
No errors occurred
AccurateRip summary
Track 1 accurately ripped (confidence 1) [7C3F7916] (AR v1)
Track 2 accurately ripped (confidence 1) [99BEB62E] (AR v1)
Track 3 accurately ripped (confidence 1) [BEE16EA7] (AR v1)
Track 4 accurately ripped (confidence 1) [8A3AE842] (AR v1)
Track 5 accurately ripped (confidence 1) [9465A2DB] (AR v1)
Track 6 accurately ripped (confidence 1) [D3268548] (AR v1)
Track 7 accurately ripped (confidence 1) [EC9F99B5] (AR v1)
All tracks accurately ripped
End of status report
==== Log checksum 2D32F1FFB2245B6F00FE656902FC5DE5CBDED9F410F2B0CE8DB3634EBA9A8229 ====
 
Содержание индексной карты (.CUE)
REM GENRE Jazz
REM DATE 2001
REM DISCID 6A106307
REM COMMENT "ExactAudioCopy v1.0b2"
PERFORMER "Hal Russell's Chemical Feast"
TITLE "Elixir"
FILE "Hal Russell's Chemical Feast - Elixir.flac" WAVE
TRACK 01 AUDIO
TITLE "Broadway Blues"
PERFORMER "Hal Russell's Chemical Feast"
ISRC 000000000000
FLAGS DCP
INDEX 01 00:00:00
TRACK 02 AUDIO
TITLE "Manas"
PERFORMER "Hal Russell's Chemical Feast"
ISRC 000000000000
FLAGS DCP
INDEX 01 15:57:28
TRACK 03 AUDIO
TITLE "Four Free"
PERFORMER "Hal Russell's Chemical Feast"
ISRC 000000000000
FLAGS DCP
INDEX 01 22:13:02
TRACK 04 AUDIO
TITLE "Four Winds"
PERFORMER "Hal Russell's Chemical Feast"
ISRC 000000000000
FLAGS DCP
INDEX 01 32:41:71
TRACK 05 AUDIO
TITLE "Kahoutek"
PERFORMER "Hal Russell's Chemical Feast"
ISRC 000000000000
FLAGS DCP
INDEX 01 48:08:45
TRACK 06 AUDIO
TITLE "March of the Cellulite Goddesses"
PERFORMER "Hal Russell's Chemical Feast"
ISRC 000000000000
FLAGS DCP
INDEX 01 55:28:50
TRACK 07 AUDIO
TITLE "Airborne"
PERFORMER "Hal Russell's Chemical Feast"
ISRC 000000000000
FLAGS DCP
INDEX 01 62:53:59
Доп. информация: Recorded on March 1979 at Elixir Gallery, Chicago
 
Состав
Bass – Russ Ditusa
Drums, Tenor Saxophone, Zither – Hal Russell
Reissue Producer – John Corbett
Saxophone – Mars Williams, Spider Middleman
Vibraphone [Vibes], Drums – George Southgate
Any questions -> support@pro-jazz.com. По всем вопросам пишите -> support@pro-jazz.com
05:38
144
Нет комментариев. Ваш будет первым!