Вы используете незарегистрированную версию компонента "Вкладки"!

Поиск

(Free Jazz) Gunter Hampel Quintet (feat. Alex von Schlippenbach & Manfred Schoof) - Heartplants (1965) - 1999, FLAC (tracks+.cue), lossless

Треклист:
Gunter Hampel Quintet - Heartplants
Жанр: Free Jazz
Страна-производитель диска: Japan (original release on MPS/SABA)
Год издания диска: 1999
Издатель (лейбл): PolyGram
Номер по каталогу: POCJ-2672 (MPS 15026)
Аудио кодек: FLAC (*.flac)
Тип рипа: tracks+.cue
Битрейт аудио: lossless
Продолжительность: 34:50
Наличие сканов в содержимом раздачи: yes
Источник (релизер): demonoid, thanks cwotto
Треклист:
1. Heartplants
2. No Arrows
3. Iron Perceptions
4. Our Chant
5. Without Me

Исполнители:
Gunter Hampel - vibes, flute
Manfred Schoof - trumpet
Alex von Schlippenbach - piano
Buschi Niebergall - bass
Pierre Courbois - drums

Recorded at SABA Studio, Vellingen on January 30, 1965.
Историческая запись! Вероятно, самый первый европейский фри-джазовый альбом.
 
Лог EAC
Exact Audio Copy V0.99 prebeta 4 from 23. January 2008
EAC extraction logfile from 9. October 2008, 16:17
Gunter Hampel Quintet / Heartplants
Used drive : LITE-ON LTR-40125S Adapter: 1 ID: 0
Read mode : Secure
Utilize accurate stream : Yes
Defeat audio cache : Yes
Make use of C2 pointers : Yes
Combined read/write offset correction : 0
Overread into Lead-In and Lead-Out : No
Fill up missing offset samples with silence : Yes
Delete leading and trailing silent blocks : No
Null samples used in CRC calculations : No
Used interface : Native Win32 interface for Win NT & 2000
Gap handling : Not detected, thus appended to previous track
Used output format : Internal WAV Routines
Sample format : 44.100 Hz; 16 Bit; Stereo
TOC of the extracted CD
Track | Start | Length | Start sector | End sector
---------------------------------------------------------
1 | 0:00.37 | 6:34.25 | 37 | 29611
2 | 6:34.62 | 3:54.50 | 29612 | 47211
3 | 10:29.37 | 6:58.50 | 47212 | 78611
4 | 17:28.12 | 9:27.63 | 78612 | 121199
5 | 26:56.00 | 7:54.12 | 121200 | 156761
Track 1
Filename C:\Documents and Settings\Owner\Desktop\Gunter Hampel Quintet - Heartplants\Gunter Hampel Quintet - Heartplants - 01 Heartplants.wav
Peak level 92.3 %
Track quality 100.0 %
Copy CRC 456F7649
Copy OK
Track 2
Filename C:\Documents and Settings\Owner\Desktop\Gunter Hampel Quintet - Heartplants\Gunter Hampel Quintet - Heartplants - 02 No Arrows.wav
Peak level 98.8 %
Track quality 100.0 %
Copy CRC 0A5C14C0
Copy OK
Track 3
Filename C:\Documents and Settings\Owner\Desktop\Gunter Hampel Quintet - Heartplants\Gunter Hampel Quintet - Heartplants - 03 Iron Perceptions.wav
Peak level 100.0 %
Track quality 100.0 %
Copy CRC 4D90EED6
Copy OK
Track 4
Filename C:\Documents and Settings\Owner\Desktop\Gunter Hampel Quintet - Heartplants\Gunter Hampel Quintet - Heartplants - 04 Our Chant.wav
Peak level 96.9 %
Track quality 100.0 %
Copy CRC F7183A8C
Copy OK
Track 5
Filename C:\Documents and Settings\Owner\Desktop\Gunter Hampel Quintet - Heartplants\Gunter Hampel Quintet - Heartplants - 05 Without Me.wav
Peak level 100.0 %
Track quality 100.0 %
Copy CRC 10E4164F
Copy OK
No errors occurred
End of status report
 
.cue
Код:
REM GENRE Jazz
REM DATE 1965
REM DISCID 34082A05
REM COMMENT "ExactAudioCopy v0.99pb4"
PERFORMER "Gunter Hampel Quintet"
TITLE "Heartplants"
FILE "Gunter Hampel Quintet - Heartplants - 01 Heartplants.wav" WAVE
  TRACK 01 AUDIO
    TITLE "Heartplants"
    PERFORMER "Gunter Hampel Quintet"
    PREGAP 00:00:37
    INDEX 01 00:00:00
  TRACK 02 AUDIO
    TITLE "No Arrows"
    PERFORMER "Gunter Hampel Quintet"
    INDEX 00 06:31:36
FILE "Gunter Hampel Quintet - Heartplants - 02 No Arrows.wav" WAVE
    INDEX 01 00:00:00
  TRACK 03 AUDIO
    TITLE "Iron Perceptions"
    PERFORMER "Gunter Hampel Quintet"
    INDEX 00 03:51:09
FILE "Gunter Hampel Quintet - Heartplants - 03 Iron Perceptions.wav" WAVE
    INDEX 01 00:00:00
  TRACK 04 AUDIO
    TITLE "Our Chant"
    PERFORMER "Gunter Hampel Quintet"
    INDEX 00 06:55:49
FILE "Gunter Hampel Quintet - Heartplants - 04 Our Chant.wav" WAVE
    INDEX 01 00:00:00
  TRACK 05 AUDIO
    TITLE "Without Me"
    PERFORMER "Gunter Hampel Quintet"
    INDEX 00 09:25:34
FILE "Gunter Hampel Quintet - Heartplants - 05 Without Me.wav" WAVE
    INDEX 01 00:00:00
 
Инфо
Гюнтер Хампель (Gunter Hampel) – немецкий мультиинструменталист, композитор, один из пионеров фри-джаза в Европе. Родился 31 августа 1937 года в небольшом университетском городке Гёттингене, в семье музыкантов. Его дед был известным композитором, автором вальсов; отец, Готтард, являлся незаурядным пианистом и скрипачом (но в условиях безденежья был вынужден работать кровельщиком). Уже с 4 лет они стали учить мальчика играть на пианино и кларнете, а позднее на вибрафоне (под рук. доктора Wolfgang Doering), саксофоне, аккордеоне. В 1945-ом Гюнтер услышал звучавшее у расквартированных в городе американских солдат радио, по которому передавали концерт Луи Армстронга, и он был зачарован этой новой для него музыкой. Подростком он начал формировать собственные джаз-бэнды, игравшие свинг и бибоп (по 3-4 концерта в неделю), и уже тогда пробовал сам сочинять мелодии. Отслужив в конце 50-х в армии, Хампель изучал архитектуру в брауншвейгском университете (1958-62). Затем он гастролировал по Европе с различными музыкантами (в основном, немецкими), исполняя как стандарты, так и свои композиции, в 1964 г. провел в Париже совместный джем-сейшн с Эриком Долфи, который высоко оценил талант молодого музыканта.
Воодушевленный Хампель создает Gunter Hampel Quintet, первый альбом которого «Heartplants» фактически положил начало новому для европейской сцены направлению музыки. Коллектив выступал на фестивалях, телевидении и получил широкое признание, благодаря своему поистине новаторскому творчеству. В 1967-ом он познакомился с вокалисткой Jeanne Lee, ставшей впоследствии его женой (у них двое детей, дочь и сын, также пошедших по музыкальной стезе). В 1968 году организует Gunter Hampel Group, куда входили в разное время Marion Brown, Steve McCall, Han Bennink, молодой и неизвестный John McLaughlin. В 1969 г. произошли два значительных события в жизни музыканта: во-первых, он подписал контракт с лейблом FLYING DUTCHMAN знаменитого продюсера Bob Thiele, начавшего продвижение работ Хампеля на американском рынке, во-вторых, записал альбом «The 8th of July» (с Anthony Braxton, Willem Breuker и Jeanne Lee), который ныне признается одной из самых революционных и влиятельных джазовых пластинок всех времен. А тогда он не мог найти компанию, готовую его издать и в итоге основал собственную – «Birth Records», которая с тех пор выпустила около 50 дисков. В 1972 Гюнтер Хампель организует «Galaxy Dream Band», с которым объездил почти весь мир за 25 лет выступлений. В 1980-90-х собирал также составы «New York Orchestra» и «Next Generation», исполнявший некую смесь рэпа, хип-хопа и фри-джаза. Кроме того, писал музыку для театра; работал с Perry Robinson, Philly Joe Jones, Don Cherry, Jack DeJohnette, Cecil Taylor, Archie Shepp, Sun Ra и многими-многими другими. Особо он выделяет сотрудничество с Hans Werner Henze, одним из наиболее значительных немецких композиторов XX века. Хампель – единственный джазмен, выступавший на сцене Национального Оперного Театра в Берлине; в 1978 году «Down Beat» признал его по итогам международного опроса лучшим вибрафонистом мира.Gunter Hampel на трекере
Официальный сайт
По всем вопросам пишите личное сообщение пользователю M0p94ok.
05:59
261
Нет комментариев. Ваш будет первым!