Вы используете незарегистрированную версию компонента "Вкладки"!

Поиск

(Free Jazz) Gunter Hampel Group - Music From Europe - 2008, FLAC (tracks+.cue), lossless

(Free Jazz) Gunter Hampel Group - Music From Europe - 2008, FLAC (tracks+.cue), lossless
Треклист:
Gunter Hampel Group - Music From Europe
Жанр: Free Jazz
Страна-производитель диска: USA
Год издания диска: 2008
Издатель (лейбл): ESP Disk
Номер по каталогу: ESP 1042
Аудиокодек: FLAC (*.flac)
Тип рипа: tracks+.cue
Битрейт аудио: lossless
Продолжительность: 42:25
Источник (релизер): собственный рип с оригинального диска.
Наличие сканов в содержимом раздачи: да
Треклист:
01. Assemblage: (Suite, Dedicated To Wolfgang Kopetsch) (21:58)
Sub-titles
1.1 Dissociation
1.2 Consolation
1.3 Renunciation
1.4 Modul
1.5 Esotheric
1.6 Epiphany
1.7 Turbulence
02. Heroicredolphysiognomystery (Dedicated To Eric Dolphy) 11:39
03. Make Love Not War To Everybody (Piece In 4 Parts) 8:48
 
Лог создания рипа
Exact Audio Copy V1.0 beta 2 from 29. April 2011
EAC extraction logfile from 1. November 2011, 17:56
Gunter Hampel Group / Music from Europe
Used drive : TSSTcorpCDDVDW SH-S222A Adapter: 1 ID: 0
Read mode : Secure
Utilize accurate stream : Yes
Defeat audio cache : Yes
Make use of C2 pointers : No
Read offset correction : 6
Overread into Lead-In and Lead-Out : No
Fill up missing offset samples with silence : Yes
Delete leading and trailing silent blocks : No
Null samples used in CRC calculations : Yes
Used interface : Native Win32 interface for Win NT & 2000
Gap handling : Appended to previous track
Used output format : User Defined Encoder
Selected bitrate : 896 kBit/s
Quality : High
Add ID3 tag : No
Command line compressor : C:\Tool\CD\EAC10\FLAC\FLAC.EXE
Additional command line options : -6 -V -T "ARTIST=%artist%" -T "TITLE=%title%" -T "ALBUM=%albumtitle%" -T "DATE=%year%" -T "TRACKNUMBER=%tracknr%" -T "GENRE=%genre%" -T "COMMENT=%comment%" -T "BAND=%albuminterpret%" -T "COMPOSER=%composer%" %haslyrics%--ta
TOC of the extracted CD
Track | Start | Length | Start sector | End sector
---------------------------------------------------------
1 | 0:00.00 | 21:59.48 | 0 | 98972
2 | 21:59.48 | 11:40.57 | 98973 | 151529
3 | 33:40.30 | 8:47.72 | 151530 | 191126
Track 1
Filename C:\! UPLOAD\Gunter Hampel Group - Music From Europe (2008) [FLAC] {ESP}\01 - Assemblage.wav
Pre-gap length 0:00:02.00
Peak level 94.2 %
Extraction speed 2.8 X
Track quality 100.0 %
Test CRC EFC9C066
Copy CRC EFC9C066
Accurately ripped (confidence 1) [376758C0] (AR v1)
Copy OK
Track 2
Filename C:\! UPLOAD\Gunter Hampel Group - Music From Europe (2008) [FLAC] {ESP}\02 - Heroicredolphysiognomystery.wav
Pre-gap length 0:00:02.00
Peak level 98.6 %
Extraction speed 3.3 X
Track quality 100.0 %
Test CRC 1CC07410
Copy CRC 1CC07410
Accurately ripped (confidence 1) [25C6AF59] (AR v1)
Copy OK
Track 3
Filename C:\! UPLOAD\Gunter Hampel Group - Music From Europe (2008) [FLAC] {ESP}\03 - Make Love Not War to Everybody.wav
Pre-gap length 0:00:02.00
Peak level 94.2 %
Extraction speed 3.4 X
Track quality 100.0 %
Test CRC 433A77DC
Copy CRC 433A77DC
Accurately ripped (confidence 1) [46E73A3C] (AR v1)
Copy OK
All tracks accurately ripped
No errors occurred
End of status report
---- CUETools DB Plugin V2.1.2
[CTDB TOCID: jHAOl86HWb.1x.PgX5XPRbbK0Xk-] disk not present in database, Submit result: jHAOl86HWb.1x.PgX5XPRbbK0Xk- has been uploaded
==== Log checksum 03515072B53B1330C4246DB3C328D13D861D4C56386CF154ED8A1988D6918213 ====
 
Содержание индексной карты (.CUE)
REM GENRE Jazz
REM DATE 2008
REM DISCID 0F09F403
REM COMMENT "ExactAudioCopy v1.0b2"
PERFORMER "Gunter Hampel Group"
TITLE "Music from Europe"
FILE "01 - Assemblage.wav" WAVE
TRACK 01 AUDIO
TITLE "Assemblage"
PERFORMER "Gunter Hampel Group"
INDEX 01 00:00:00
TRACK 02 AUDIO
TITLE "Heroicredolphysiognomystery"
PERFORMER "Gunter Hampel Group"
INDEX 00 21:57:48
FILE "02 - Heroicredolphysiognomystery.wav" WAVE
INDEX 01 00:00:00
TRACK 03 AUDIO
TITLE "Make Love Not War to Everybody"
PERFORMER "Gunter Hampel Group"
INDEX 00 11:38:57
FILE "03 - Make Love Not War to Everybody.wav" WAVE
INDEX 01 00:00:00
Доп. информация:
Recorded December 21, 1966 in Baarn, Holland
 
Об альбоме (сборнике)
Although it is simply called Music From Europe, the Gunter Hampel Group's first foray into America in 1966, could well have joined the ranks of several early (1950s) recordings by MJQ or John Lewis and Dizzy Gillespie's Perceptions (Verve, 1961) as one of those earliest examples of where the musical cultures of classical Europe and jazz USA collide.
Perhaps the title is even deliberate; a tongue-in-cheek reminder that jazz—although, in its absolute form a musical idiom evolved from the Afro-American blues—might also be "spoken or sung" in another, albeit eccentric idiom far away, even from the avant-garde musical movement of the 1960s. This is probably the hypothesis of Gunter Hampel's very forthright record. So it was made after most of Europe had heard Coltrane music of his late period... so it was made after Dolphy marched through Europe with the all-conquering Mingus band... So what?
Gunter Hampel born in Germany in 1937, being brought up on a staple of European classical and German folkloric music collided with jazz when he heard Louis Armstrong, who "spoke" to him in jazz, by then the only language he cared to understand after the War. But Hampel is more like Bartok, at least in his early interpretations of his impulses that he laid down musically. By the 1960s he was so completely immersed and proficient in each of the three milieus that he could lay claim to making a statement in a third stream, music from Europe. This is really what he laid down on this record for Bernard Stollman, in Baarn, Holland just before Christmas in 1966. It then heralded Hampel's entry into the US.
Music From Europe is literally a collision of cultures. And it is an oblique early interpretation of the idiom of jazz by arguably one of Europe's most influential musicians. Coming as it did at the height of the avant-garde movement of the 1960s, it stands out as one that has complete sonic architecture—in song form and structure. Hampel on vibes, bass clarinet and flute is ably assisted in his small group master class by another stellar artist, Willem Breuker on saxophones and clarinets, the Dutchman, Piet Veening on bass and Pierre Courbois on percussion. Together they power their way through an impressive program comprising three gigantic songs.
"Assemblage," is a seven-part suite that is an energetic romp to the edges of composed music. Complete with a themed head, improvised section for all the instrumentalists and a resolution, the music is wonderfully wild and humorous. It pays oblique tribute to some Ducal music and features some wonderful fiery passages on saxophones, chillingly cool vibraharp and exquisite chromatically tuned percussion by Courbois. "Heroicredolphysiognomystery," a seemingly eccentric dedication to Dolphy shows how completely the musicians have absorbed the legendary Africa-Brass Sessions of Coltrane (Impulse, 1961). And "Make Love Not War to Everybody" is simply an eccentric work of art. Heard as a complete suite, though this could be the definitive modern third stream report from Europe.
 
Состав
Gunter Hampel - vibraphone, bass clarinet, flute
Willem Breuker - soprano, alto, tenor & baritone saxophones, clarinet, bass clarinet
Piet Veening - bass
Pierre Courbois - percussion
Any questions -> support@pro-jazz.com. По всем вопросам пишите -> support@pro-jazz.com
18:40
207
Нет комментариев. Ваш будет первым!