Вы используете незарегистрированную версию компонента "Вкладки"!

Поиск

(Free Jazz / Guitar / Experimental) F. Robert Lloyd 1993 Think About Brooklyn (Bill Laswell, Anton Fier, Sonny Sharrock), FLAC (tracks+.cue), lossless

(Free Jazz / Guitar / Experimental) F. Robert Lloyd 1993 Think About Brooklyn (Bill Laswell, Anton Fier, Sonny Sharrock), FLAC (tracks+.cue), lossless
Треклист:
F. Robert Lloyd - Think About Brooklyn
Жанр: Free Jazz / Guitar / Experimental
Год выпуска диска: 1993
Производитель диска: Holland (Delabel)
Аудио кодек: FLAC
Тип рипа: tracks+.cue
Битрейт аудио: lossless
Продолжительность: 70:00
Трэклист:
1 Blind Willie
2 Daly Day
3 Corkscrew Swamp Road
4 Waltzing Kate
5 Lullaby You
6 Bloody Buddy Rumba
7 Four Lives in a Day Suite
8 Proverbs from Hell
9 True Man Coyote
10 La Femme Bachir
11 Brooklyn Fuss
12 Crossroads
13 Hellhound on My Trail
14 I Want to Drink It Straight
15 Tribute to Sun Ra
Band:
Bass - Bill Laswell (tracks: 1, 4 to 10) , Gregoire Garrigues (tracks: 1 to 9, 11, 14, 15)
Drums - Anton Fier (tracks: 1 to 7, 9 to 11, 14)
Guitar - F. Robert Lloyd , Sonny Sharrock (tracks: 2 to 9, 11, 14, 15)
Mixed By - F. Robert Lloyd , Gregoire Garrigues , Jean Touitou , Oz Fritz
Mastered By - Howie Weinberg
Producer - APC
Recorded By - Oz Fritz
Recorded in seven days at Greenpoint Studio, Brooklyn, New York.
Доп. информация:
HQ-сканы с 12-стр. буклетом прилагаются. Интересно, музыка почти вся без вокала, в буклете к трекам приведены стихи. А на треках, где есть вокал, транскрипция в буклете не приведена
 
EAC Log
Код:
Exact Audio Copy V0.99 prebeta 4 from 23. January 2008
EAC extraction logfile from 12. August 2008, 10:19
F. Robert Lloyd / Think About Brooklyn
Used drive  : HL-DT-STDVDRAM GSA-H10N   Adapter: 0  ID: 0
Read mode               : Secure
Utilize accurate stream : Yes
Defeat audio cache      : Yes
Make use of C2 pointers : No
Read offset correction                      : 667
Overread into Lead-In and Lead-Out          : No
Fill up missing offset samples with silence : Yes
Delete leading and trailing silent blocks   : No
Null samples used in CRC calculations       : Yes
Used interface                              : Native Win32 interface for Win NT & 2000
Used output format              : User Defined Encoder
Selected bitrate                : 768 kBit/s
Quality                         : High
Add ID3 tag                     : No
Command line compressor         : C:\Program Files\Exact Audio Copy\FLAC\FLAC.EXE
Additional command line options : --best -V -T "ARTIST=%a" -T "TITLE=%t" -T "ALBUM=%g" -T "DATE=%y" -T "TRACKNUMBER=%n" -T "GENRE=%m" -T "COMMENT=%e" %s -o %d
TOC of the extracted CD
     Track |   Start  |  Length  | Start sector | End sector
    ---------------------------------------------------------
        1  |  0:00.33 |  3:22.50 |        33    |    15232
        2  |  3:23.08 |  4:20.42 |     15233    |    34774
        3  |  7:43.50 |  4:15.48 |     34775    |    53947
        4  | 11:59.23 |  3:51.47 |     53948    |    71319
        5  | 15:50.70 |  5:11.08 |     71320    |    94652
        6  | 21:02.03 |  3:27.35 |     94653    |   110212
        7  | 24:29.38 |  7:23.57 |    110213    |   143494
        8  | 31:53.20 |  8:23.48 |    143495    |   181267
        9  | 40:16.68 |  3:41.37 |    181268    |   197879
       10  | 43:58.30 |  3:16.33 |    197880    |   212612
       11  | 47:14.63 |  2:43.17 |    212613    |   224854
       12  | 49:58.05 |  2:26.70 |    224855    |   235874
       13  | 52:25.00 |  1:52.10 |    235875    |   244284
       14  | 54:17.10 |  5:28.20 |    244285    |   268904
       15  | 59:45.30 | 10:14.63 |    268905    |   315017
Range status and errors
Selected range
     Filename C:\Documents and Settings\sbesson\Bureau\F. Robert Lloyd - Think About Brooklyn.wav
     Peak level 99.9 %
     Range quality 100.0 %
     Copy CRC 942FD282
     Copy OK
No errors occurred
AccurateRip summary
Track  1  not present in database
Track  2  not present in database
Track  3  not present in database
Track  4  not present in database
Track  5  not present in database
Track  6  not present in database
Track  7  not present in database
Track  8  not present in database
Track  9  not present in database
Track 10  not present in database
Track 11  not present in database
Track 12  not present in database
Track 13  not present in database
Track 14  not present in database
Track 15  not present in database
None of the tracks are present in the AccurateRip database
End of status report
Any questions -> support@pro-jazz.com. По всем вопросам пишите -> support@pro-jazz.com
08:46
153
Нет комментариев. Ваш будет первым!