Вы используете незарегистрированную версию компонента "Вкладки"!

Поиск

(free jazz) Goldsparkle Trio - Thunder Reminded Me 2002, FLAC (tracks+.cue), lossless

(free jazz) Goldsparkle Trio - Thunder Reminded Me 2002, FLAC (tracks+.cue), lossless
Треклист:


Goldsparkle Trio - Thunder Reminded Me 2002

Жанр: free jazz
Год выпуска: 2002
Издатель (лейбл):Clean Feed / CF009CD
Формат: FLAC (tracks+.cue)
Битрейт аудио: lossless
Продолжительность 46`42
Источник: what.cd
Double Bass – Adam Roberts
Drums – Andrew Barker
Saxophone – Charles Waters

tracks

1 Naysayer 9:41
2 Thunder Reminded Me 10:41
3 For Billy Higgins 2:26
4 Coronation Blues For The Memory Theatre West Coast 9:39
5 Williamsburg Concerto #1.2 9:03
6 Cardshark 5:01


 
.log
X Lossless Decoder version 20130127 (142.3)
XLD extraction logfile from 2013-01-29 04:11:16 +0400
Goldsparkle Trio / Thunder Reminded Me
Used drive : HL-DT-ST DVDRW GX30N (revision RP09)
Media type : Pressed CD
Ripper mode : XLD Secure Ripper
Disable audio cache : OK for the drive with a cache less than 1375KiB
Make use of C2 pointers : NO
Read offset correction : 6
Max retry count : 20
Gap status : Analyzed, Appended
TOC of the extracted CD
Track | Start | Length | Start sector | End sector
---------------------------------------------------------
1 | 00:00:00 | 09:41:20 | 0 | 43594
2 | 09:41:20 | 10:41:04 | 43595 | 91673
3 | 20:22:24 | 02:26:02 | 91674 | 102625
4 | 22:48:26 | 09:39:13 | 102626 | 146063
5 | 32:27:39 | 09:03:59 | 146064 | 186847
6 | 41:31:23 | 05:00:74 | 186848 | 209421
AccurateRip Summary (DiscID: 000be7c5-003e68df-4f0ae806)
Track 01 : OK (v1, confidence 1/1)
Track 02 : OK (v1, confidence 1/1)
Track 03 : OK (v1, confidence 1/1)
Track 04 : OK (v1, confidence 1/1)
Track 05 : OK (v1, confidence 1/1)
Track 06 : OK (v1, confidence 1/1)
->All tracks accurately ripped.
All Tracks
Album gain : -2.26 dB
Peak : 1.000000
Statistics
Read error : 0
Jitter error (maybe fixed) : 0
Retry sector count : 0
Damaged sector count : 0
Track 01
Filename : /Users/anch/Music/FLAC/Goldsparkle Trio - 2002 - Thunder Reminded Me [FLAC]/01 - Naysayer.flac
/Users/anch/Music/FLAC/Goldsparkle Trio - 2002 - Thunder Reminded Me [MP3 320]/01 - Naysayer.mp3
/Users/anch/Music/FLAC/Goldsparkle Trio - 2002 - Thunder Reminded Me [MP3 V0]/01 - Naysayer.mp3
Pre-gap length : 00:02:00
Track gain : -3.23 dB
Peak : 1.000000
CRC32 hash (test run) : EC18B2DC
CRC32 hash : EC18B2DC
CRC32 hash (skip zero) : EED95A36
AccurateRip v1 signature : A55EE06A
AccurateRip v2 signature : 7F8C2EA9
->Accurately ripped (v1, confidence 1/1)
Statistics
Read error : 0
Jitter error (maybe fixed) : 0
Retry sector count : 0
Damaged sector count : 0
Track 02
Filename : /Users/anch/Music/FLAC/Goldsparkle Trio - 2002 - Thunder Reminded Me [FLAC]/02 - Thunder Reminded Me.flac
/Users/anch/Music/FLAC/Goldsparkle Trio - 2002 - Thunder Reminded Me [MP3 320]/02 - Thunder Reminded Me.mp3
/Users/anch/Music/FLAC/Goldsparkle Trio - 2002 - Thunder Reminded Me [MP3 V0]/02 - Thunder Reminded Me.mp3
Track gain : -1.75 dB
Peak : 1.000000
CRC32 hash (test run) : DDE13662
CRC32 hash : DDE13662
CRC32 hash (skip zero) : 2E1EAB4C
AccurateRip v1 signature : 68B8D8AC
AccurateRip v2 signature : 63DEBAF1
->Accurately ripped (v1, confidence 1/1)
Statistics
Read error : 0
Jitter error (maybe fixed) : 0
Retry sector count : 0
Damaged sector count : 0
Track 03
Filename : /Users/anch/Music/FLAC/Goldsparkle Trio - 2002 - Thunder Reminded Me [FLAC]/03 - For Billy Higgins.flac
/Users/anch/Music/FLAC/Goldsparkle Trio - 2002 - Thunder Reminded Me [MP3 320]/03 - For Billy Higgins.mp3
/Users/anch/Music/FLAC/Goldsparkle Trio - 2002 - Thunder Reminded Me [MP3 V0]/03 - For Billy Higgins.mp3
Track gain : -3.20 dB
Peak : 0.994171
CRC32 hash (test run) : 1F50E39F
CRC32 hash : 1F50E39F
CRC32 hash (skip zero) : D71FFAD2
AccurateRip v1 signature : B77726C7
AccurateRip v2 signature : 108D56AE
->Accurately ripped (v1, confidence 1/1)
Statistics
Read error : 0
Jitter error (maybe fixed) : 0
Retry sector count : 0
Damaged sector count : 0
Track 04
Filename : /Users/anch/Music/FLAC/Goldsparkle Trio - 2002 - Thunder Reminded Me [FLAC]/04 - Coronation Blues for the Memory Theatre West Coast.flac
/Users/anch/Music/FLAC/Goldsparkle Trio - 2002 - Thunder Reminded Me [MP3 320]/04 - Coronation Blues for the Memory Theatre West Coast.mp3
/Users/anch/Music/FLAC/Goldsparkle Trio - 2002 - Thunder Reminded Me [MP3 V0]/04 - Coronation Blues for the Memory Theatre West Coast.mp3
Track gain : -0.53 dB
Peak : 1.000000
CRC32 hash (test run) : C1FA8CE6
CRC32 hash : C1FA8CE6
CRC32 hash (skip zero) : 8086CBB8
AccurateRip v1 signature : EDB47946
AccurateRip v2 signature : 74891C1D
->Accurately ripped (v1, confidence 1/1)
Statistics
Read error : 0
Jitter error (maybe fixed) : 0
Retry sector count : 0
Damaged sector count : 0
Track 05
Filename : /Users/anch/Music/FLAC/Goldsparkle Trio - 2002 - Thunder Reminded Me [FLAC]/05 - Williamsburg Concerto #1.2.flac
/Users/anch/Music/FLAC/Goldsparkle Trio - 2002 - Thunder Reminded Me [MP3 320]/05 - Williamsburg Concerto #1.2.mp3
/Users/anch/Music/FLAC/Goldsparkle Trio - 2002 - Thunder Reminded Me [MP3 V0]/05 - Williamsburg Concerto #1.2.mp3
Track gain : -3.18 dB
Peak : 1.000000
CRC32 hash (test run) : 3BDCEB06
CRC32 hash : 3BDCEB06
CRC32 hash (skip zero) : 8D94CAD1
AccurateRip v1 signature : 3B6BC34D
AccurateRip v2 signature : 8C4E84FD
->Accurately ripped (v1, confidence 1/1)
Statistics
Read error : 0
Jitter error (maybe fixed) : 0
Retry sector count : 0
Damaged sector count : 0
Track 06
Filename : /Users/anch/Music/FLAC/Goldsparkle Trio - 2002 - Thunder Reminded Me [FLAC]/06 - Cardshark.flac
/Users/anch/Music/FLAC/Goldsparkle Trio - 2002 - Thunder Reminded Me [MP3 320]/06 - Cardshark.mp3
/Users/anch/Music/FLAC/Goldsparkle Trio - 2002 - Thunder Reminded Me [MP3 V0]/06 - Cardshark.mp3
Track gain : 0.41 dB
Peak : 0.999969
CRC32 hash (test run) : 34BEB024
CRC32 hash : 34BEB024
CRC32 hash (skip zero) : EA95C446
AccurateRip v1 signature : EC8048C3
AccurateRip v2 signature : 61C2F43C
->Accurately ripped (v1, confidence 1/1)
Statistics
Read error : 0
Jitter error (maybe fixed) : 0
Retry sector count : 0
Damaged sector count : 0
No errors occurred
End of status report
 
.cue
TITLE "Thunder Reminded Me"
PERFORMER "Goldsparkle Trio"
REM GENRE "Free Jazz"
REM DATE "2002"
REM DISCID 4F0AE806
REM REPLAYGAIN_ALBUM_GAIN -2.26 dB
REM REPLAYGAIN_ALBUM_PEAK 1.000000
FILE "01 - Naysayer.flac" WAVE
TRACK 01 AUDIO
TITLE "Naysayer"
PERFORMER "Goldsparkle Trio"
REM REPLAYGAIN_TRACK_GAIN -3.23 dB
REM REPLAYGAIN_TRACK_PEAK 1.000000
INDEX 01 00:00:00
FILE "02 - Thunder Reminded Me.flac" WAVE
TRACK 02 AUDIO
TITLE "Thunder Reminded Me"
PERFORMER "Goldsparkle Trio"
REM REPLAYGAIN_TRACK_GAIN -1.75 dB
REM REPLAYGAIN_TRACK_PEAK 1.000000
INDEX 01 00:00:00
FILE "03 - For Billy Higgins.flac" WAVE
TRACK 03 AUDIO
TITLE "For Billy Higgins"
PERFORMER "Goldsparkle Trio"
REM REPLAYGAIN_TRACK_GAIN -3.20 dB
REM REPLAYGAIN_TRACK_PEAK 0.994171
INDEX 01 00:00:00
FILE "04 - Coronation Blues for the Memory Theatre West Coast.flac" WAVE
TRACK 04 AUDIO
TITLE "Coronation Blues for the Memory Theatre West Coast"
PERFORMER "Goldsparkle Trio"
REM REPLAYGAIN_TRACK_GAIN -0.53 dB
REM REPLAYGAIN_TRACK_PEAK 1.000000
INDEX 01 00:00:00
FILE "05 - Williamsburg Concerto #1.2.flac" WAVE
TRACK 05 AUDIO
TITLE "Williamsburg Concerto #1.2"
PERFORMER "Goldsparkle Trio"
REM REPLAYGAIN_TRACK_GAIN -3.18 dB
REM REPLAYGAIN_TRACK_PEAK 1.000000
INDEX 01 00:00:00
FILE "06 - Cardshark.flac" WAVE
TRACK 06 AUDIO
TITLE "Cardshark"
PERFORMER "Goldsparkle Trio"
REM REPLAYGAIN_TRACK_GAIN 0.41 dB
REM REPLAYGAIN_TRACK_PEAK 0.999969
INDEX 01 00:00:00

другие релизы
Any questions -> support@pro-jazz.com. По всем вопросам пишите -> support@pro-jazz.com
08:49
148
Нет комментариев. Ваш будет первым!