Вы используете незарегистрированную версию компонента "Вкладки"!

Поиск

(Free Jazz, Fusion, Contemporary Jazz) [CD] Wolfgang Dauner Trio - Dream Talk - 1964 (2012), FLAC (tracks+.cue), lossless

(Free Jazz, Fusion, Contemporary Jazz) [CD] Wolfgang Dauner Trio - Dream Talk - 1964 (2012), FLAC (tracks+.cue), lossless
Треклист:
Wolfgang Dauner Trio - Dream Talk
Жанр: Free Jazz, Fusion, Contemporary Jazz
Носитель: CD
Страна-производитель диска (релиза): США
Год издания: 2012
Издатель (лейбл): Jazzhus Disk
Номер по каталогу: JD-7626
Аудиокодек: FLAC (*.flac)
Тип рипа: tracks+.cue
Битрейт аудио: lossless
Продолжительность: 43:06
Источник (релизер): wikieup (what)
Наличие сканов в содержимом раздачи: нет
Треклист:
01. Dream Talk (Dauner) - 7:12
02. Bird Food (Coleman) - 4:31
03. A Long Night (Dauner) - 5:33
04. Dammerung (Dauner) - 5:42
05. Zehn Notizen (Dauner) - 5:43
06. Soul Eyes (Waldron) - 4:01
07. Free Fall (Dauner) - 3:49
08. Yesterdays (Kern-Harbach) - 6:35
Состав:
Wolfgang Dauner - piano
Eberhard Weber - bass
Fred Braceful - drums
Recorded at Studio Villa Berg, Stuttgart on September 14, 1964.
 
Лог создания рипа
Exact Audio Copy V1.0 beta 3 from 29. August 2011
EAC extraction logfile from 5. August 2015, 11:02
Wolfgang Dauner Trio / Dream Talk [2012 Reissue]
Used drive : TSSTcorpDVD-ROM TS-U333B Adapter: 0 ID: 1
Read mode : Secure
Utilize accurate stream : Yes
Defeat audio cache : Yes
Make use of C2 pointers : No
Read offset correction : 6
Overread into Lead-In and Lead-Out : No
Fill up missing offset samples with silence : Yes
Delete leading and trailing silent blocks : No
Null samples used in CRC calculations : Yes
Used interface : Native Win32 interface for Win NT & 2000
Gap handling : Appended to previous track
Used output format : User Defined Encoder
Selected bitrate : 1024 kBit/s
Quality : High
Add ID3 tag : No
Command line compressor : C:\Program Files\Exact Audio Copy\Flac\flac.exe
Additional command line options : -8 -V -T "ARTIST=%artist%" -T "TITLE=%title%" -T "ALBUM=%albumtitle%" -T "DATE=%year%" -T "TRACKNUMBER=%tracknr%" -T "GENRE=%genre%" -T "PERFORMER=%albuminterpret%" -T "COMPOSER=%composer%" %haslyrics%--tag-from-file=LYRICS="%lyricsfile%"%haslyrics% -T "ALBUMARTIST=%albumartist%" -T "DISCNUMBER=%cdnumber%" -T "TOTALDISCS=%totalcds%" -T "TOTALTRACKS=%numtracks%" -T "COMMENT=%comment%" %source% -o %dest%
TOC of the extracted CD
Track | Start | Length | Start sector | End sector
---------------------------------------------------------
1 | 0:00.00 | 7:11.52 | 0 | 32376
2 | 7:11.52 | 4:31.01 | 32377 | 52702
3 | 11:42.53 | 5:33.02 | 52703 | 77679
4 | 17:15.55 | 5:41.54 | 77680 | 103308
5 | 22:57.34 | 5:43.00 | 103309 | 129033
6 | 28:40.34 | 4:00.44 | 129034 | 147077
7 | 32:41.03 | 3:49.15 | 147078 | 164267
8 | 36:30.18 | 6:35.37 | 164268 | 193929
Track 1
Filename C:\EAC Rips\01 - Dream Talk.wav
Pre-gap length 0:00:02.00
Peak level 100.0 %
Extraction speed 2.9 X
Track quality 100.0 %
Test CRC B40499E9
Copy CRC B40499E9
Accurately ripped (confidence 1) [101D6F1F] (AR v2)
Copy OK
Track 2
Filename C:\EAC Rips\02 - Bird Food.wav
Peak level 100.0 %
Extraction speed 3.1 X
Track quality 100.0 %
Test CRC C429A73B
Copy CRC C429A73B
Accurately ripped (confidence 1) [1B263997] (AR v2)
Copy OK
Track 3
Filename C:\EAC Rips\03 - A Long Night.wav
Peak level 100.0 %
Extraction speed 3.5 X
Track quality 100.0 %
Test CRC F28E9C50
Copy CRC F28E9C50
Accurately ripped (confidence 1) [4B6102D6] (AR v2)
Copy OK
Track 4
Filename C:\EAC Rips\04 - Dämmerung.wav
Peak level 100.0 %
Extraction speed 3.8 X
Track quality 100.0 %
Test CRC C26B83D5
Copy CRC C26B83D5
Accurately ripped (confidence 1) [762F448B] (AR v2)
Copy OK
Track 5
Filename C:\EAC Rips\05 - Zehn Notizen.wav
Peak level 100.0 %
Extraction speed 4.1 X
Track quality 100.0 %
Test CRC C8CC9448
Copy CRC C8CC9448
Accurately ripped (confidence 1) [6C9AD970] (AR v2)
Copy OK
Track 6
Filename C:\EAC Rips\06 - Soul Eyes.wav
Peak level 100.0 %
Extraction speed 4.1 X
Track quality 100.0 %
Test CRC 26D8893D
Copy CRC 26D8893D
Accurately ripped (confidence 1) [C64D5612] (AR v2)
Copy OK
Track 7
Filename C:\EAC Rips\07 - Free Fall.wav
Peak level 100.0 %
Extraction speed 4.3 X
Track quality 100.0 %
Test CRC 84576552
Copy CRC 84576552
Accurately ripped (confidence 1) [E27658B6] (AR v2)
Copy OK
Track 8
Filename C:\EAC Rips\08 - Yesterdays.wav
Peak level 100.0 %
Extraction speed 4.8 X
Track quality 100.0 %
Test CRC 719C9450
Copy CRC 719C9450
Accurately ripped (confidence 1) [B2343298] (AR v2)
Copy OK
All tracks accurately ripped
No errors occurred
End of status report
==== Log checksum CC2E12EF4F3FC6164F3F145A68798103A18105035AD5DA7456743E994030B862 ====
 
Содержание индексной карты (.CUE)
REM GENRE Jazz
REM DATE 1964
REM DISCID 630A1908
REM COMMENT "ExactAudioCopy v1.0b3"
PERFORMER "Wolfgang Dauner"
TITLE "Dream Talk"
FILE "01 - Dream Talk.wav" WAVE
TRACK 01 AUDIO
TITLE "Dream Talk"
PERFORMER "Wolfgang Dauner"
INDEX 01 00:00:00
FILE "02 - Bird Food.wav" WAVE
TRACK 02 AUDIO
TITLE "Bird Food"
PERFORMER "Wolfgang Dauner"
INDEX 01 00:00:00
FILE "03 - A Long Night.wav" WAVE
TRACK 03 AUDIO
TITLE "A Long Night"
PERFORMER "Wolfgang Dauner"
INDEX 01 00:00:00
FILE "04 - Dammerung.wav" WAVE
TRACK 04 AUDIO
TITLE "Dammerung"
PERFORMER "Wolfgang Dauner"
INDEX 01 00:00:00
FILE "05 - Zehn Notizen.wav" WAVE
TRACK 05 AUDIO
TITLE "Zehn Notizen"
PERFORMER "Wolfgang Dauner"
INDEX 01 00:00:00
FILE "06 - Soul Eyes.wav" WAVE
TRACK 06 AUDIO
TITLE "Soul Eyes"
PERFORMER "Wolfgang Dauner"
INDEX 01 00:00:00
FILE "07 - Free Fall.wav" WAVE
TRACK 07 AUDIO
TITLE "Free Fall"
PERFORMER "Wolfgang Dauner"
INDEX 01 00:00:00
FILE "08 - Yesterdays.wav" WAVE
TRACK 08 AUDIO
TITLE "Yesterdays"
PERFORMER "Wolfgang Dauner"
INDEX 01 00:00:00
 
Об альбоме (сборнике)
An early session from German pianist Wolfgang Dauner – one with a sound that's every bit as great as you'd expect from the title! The "dream talk" component here is one that comes from Dauner's gentle, yet modern approach to the keys – one that's clearly learning lessons from 50s modernists like George Russell or Bill Evans, but which is stretching out here in some of the bolder freedoms of the European scene at the time – a precursor to later modes on MPS and Saba, but performed here with a bit more careful restraint. The record's nicely free from some of the overindulgences of some of Dauner's 70s sides, and is an acoustic effort throughout – extremely imaginative, with a "set free" quality that's also never too "out", nor too full of itself – a bit like the best early recordings by Steve Kuhn. Wolfgang's approach to the keys is nothing less than revelatory – and he receives well matched accompaniment from bassist Eberhard Weber and drummer Fred Braceful. Titles include "Free Fall", "Dammerung", "Soul Eyes", "A Long Night", "Dream Talk", and "Bird Food".
По всем вопросам пишите личное сообщение пользователю M0p94ok.
15:34
276
Нет комментариев. Ваш будет первым!