Вы используете незарегистрированную версию компонента "Вкладки"!

Поиск

(Free Jazz, Free Improvisation) The Intuitive Art Ensemble (with Paul Dunmall, Hilary Jeffery, Andrew Ball, Trevor Taylor, Philip Gibbs, Neil Metcalfe) - Now - 2003, APE (image+.cue), lossless

(Free Jazz, Free Improvisation) The Intuitive Art Ensemble (with Paul Dunmall, Hilary Jeffery, Andrew Ball, Trevor Taylor, Philip Gibbs, Neil Metcalfe) - Now - 2003, APE (image+.cue), lossless
Треклист:
The Intuitive Art Ensemble / Now
Жанр: Free Jazz, Free Improvisation
Страна-производитель диска: UK
Год издания диска: 2003
Издатель (лейбл): FMR Records
Номер по каталогу: FMR CD121-0703
Аудиокодек: APE (*.ape)
Тип рипа: image+.cue
Битрейт аудио: lossless
Продолжительность: 74:22
Источник (релизер): Собственный рип с оригинального диска
Наличие сканов в содержимом раздачи: нет (рип делалался давно, и сам оригинальный диск уже "ушел" от меня, так что возможности "отсканировать" полиграфию, увы, нет)
Треклист:
1 - Now (17.59)
2 - Is (33.54)
3 - The (10.47)
4 - Time (11.36)
Recorded on 4 May 2003 at Victoria Room, Studios of the University of Bristol.
 
Лог создания рипа
Exact Audio Copy V0.99 prebeta 4 from 23. January 2008
Отчёт EAC об извлечении, выполненном 4. апреля 2010, 20:53
The Intuitive Art Ensemble / N O W
Дисковод: TSSTcorpCDDVDW SH-S203D Adapter: 3 ID: 0
Режим чтения : Достоверность
Использование точного потока : Да
Отключение кэша аудио : Да
Использование указателей C2 : Нет
Коррекция смещения при чтении : 6
Способность читать области Lead-in и Lead-out : Нет
Заполнение пропущенных сэмплов тишиной : Да
Удаление блоков с тишиной в начале и конце : Нет
При вычислениях CRC использовались нулевые сэмплы : Да
Интерфейс : Установленный внешний ASPI-интерфейс
Выходной формат : Внутренние WAV-операции
Формат сэмплов : 44.100 Гц; 16 бит; стерео
TOC извлечённого CD
Трек | Старт | Длительность | Начальный сектор | Конечный сектор
---------------------------------------------------------------------
1 | 0:00.00 | 18:01.37 | 0 | 81111
2 | 18:01.37 | 33:56.06 | 81112 | 233817
3 | 51:57.43 | 10:49.10 | 233818 | 282502
4 | 62:46.53 | 11:36.56 | 282503 | 334758
Характеристики диапазона извлечения и сообщения об ошибках
Выбранный диапазон
Имя файла E:\FOS\Music\Dunmall\The Intuitive Art Ensemble - N O W\The Intuitive Art Ensemble - N O W.wav
Пиковый уровень 97.8 %
Качество диапазона 100.0 %
CRC копии 19AF154B
Копирование... OK
Ошибок не произошло
Конец отчёта
 
Содержание индексной карты (.CUE)
REM DISCID 34116F04
REM COMMENT "ExactAudioCopy v0.99pb4"
PERFORMER "The Intuitive Art Ensemble"
TITLE "N O W"
FILE "The Intuitive Art Ensemble - N O W.wav" WAVE
TRACK 01 AUDIO
TITLE "Now"
PERFORMER "The Intuitive Art Ensemble"
INDEX 01 00:00:00
TRACK 02 AUDIO
TITLE "Is"
PERFORMER "The Intuitive Art Ensemble"
INDEX 00 17:59:37
INDEX 01 18:01:37
TRACK 03 AUDIO
TITLE "The"
PERFORMER "The Intuitive Art Ensemble"
INDEX 00 51:55:43
INDEX 01 51:57:43
TRACK 04 AUDIO
TITLE "Time"
PERFORMER "The Intuitive Art Ensemble"
INDEX 00 62:44:53
INDEX 01 62:46:53
 
Состав
Flute – Neil Metcalfe
Guitar – Philip Gibbs
Percussion, Performer [Sound Sculptures] – Trevor Taylor (2)
Piano, Celesta – Andrew Ball
Saxophone [Saxophones], Performer [Invented Instruments] – Paul Dunmall
Trombone – Hilary Jeffery
Any questions -> support@pro-jazz.com. По всем вопросам пишите -> support@pro-jazz.com
14:05
127
Нет комментариев. Ваш будет первым!