Вы используете незарегистрированную версию компонента "Вкладки"!

Поиск

(Free Jazz, Free Improvisation) The Electrics (Axel Dorner, Sture Ericson, Ingebrigt Haker Flaten, Raymond Strid) - Live At Glenn Miller Cafe - 2006, FLAC (image+.cue), lossless

(Free Jazz, Free Improvisation) The Electrics (Axel Dorner, Sture Ericson, Ingebrigt Haker Flaten, Raymond Strid) - Live At Glenn Miller Cafe - 2006, FLAC (image+.cue), lossless
Треклист:
The Electrics / Live At Glenn Miller Cafe
Жанр: Free Jazz, Free Improvisation
Страна-производитель диска: Sweden
Год издания диска: 2006
Издатель (лейбл): Ayler Records
Номер по каталогу: aylCD-034
Аудиокодек: FLAC (*.flac)
Тип рипа: image+.cue
Битрейт аудио: lossless
Продолжительность: 59:08
Источник (релизер): cd
Наличие сканов в содержимом раздачи: нет
Треклист:
1 Electrips 20:23
2 Electrance 3:43
3 Electrash 10:07
4 Electroots 12:57
5 Electraps 11:55
 
Лог создания рипа
Exact Audio Copy V1.0 beta 2 from 29. April 2011
EAC extraction logfile from 10. November 2011, 22:11
The Electrics / Live at Glenn Miller Café
Used drive : Optiarc DVD RW AD-7170A Adapter: 0 ID: 0
Read mode : Secure
Utilize accurate stream : Yes
Defeat audio cache : Yes
Make use of C2 pointers : No
Read offset correction : 48
Overread into Lead-In and Lead-Out : No
Fill up missing offset samples with silence : Yes
Delete leading and trailing silent blocks : No
Null samples used in CRC calculations : Yes
Used interface : Native Win32 interface for Win NT & 2000
Used output format : User Defined Encoder
Selected bitrate : 320 kBit/s
Quality : High
Add ID3 tag : No
Command line compressor : C:\Program Files\Exact Audio Copy\Flac\flac.exe
Additional command line options : -V -8 -T "Date=%year%" -T "Genre=%genre%" %source%
TOC of the extracted CD
Track | Start | Length | Start sector | End sector
---------------------------------------------------------
1 | 0:00.00 | 20:23.59 | 0 | 91783
2 | 20:23.59 | 3:43.23 | 91784 | 108531
3 | 24:07.07 | 10:08.00 | 108532 | 154131
4 | 34:15.07 | 12:57.44 | 154132 | 212450
5 | 47:12.51 | 11:55.63 | 212451 | 266138
Range status and errors
Selected range
Filename C:\EAC\Downloads\The Electrics - Live at Glenn Miller Café.wav
Peak level 97.7 %
Extraction speed 2.0 X
Range quality 100.0 %
Test CRC E51FF33C
Copy CRC E51FF33C
Copy OK
No errors occurred
AccurateRip summary
Track 1 accurately ripped (confidence 2) [D34ED406] (AR v1)
Track 2 accurately ripped (confidence 2) [7556AEE3] (AR v1)
Track 3 accurately ripped (confidence 2) [8C8DEAFD] (AR v1)
Track 4 accurately ripped (confidence 2) [008E9529] (AR v1)
Track 5 accurately ripped (confidence 2) [492C5565] (AR v1)
All tracks accurately ripped
End of status report
==== Log checksum F57C3C068BCB3F322C399DA0509E442B4E371FC496FB7CE10FA6BCAAF33EC3A7 ====
 
Содержание индексной карты (.CUE)
REM GENRE Jazz
REM DATE 2006
REM DISCID 3D0DDC05
REM COMMENT "ExactAudioCopy v1.0b2"
PERFORMER "The Electrics"
TITLE "Live at Glenn Miller Cafe"
FILE "The Electrics - Live at Glenn Miller Cafe.flac" WAVE
TRACK 01 AUDIO
TITLE "Electrips"
PERFORMER "The Electrics"
FLAGS DCP
INDEX 01 00:00:00
TRACK 02 AUDIO
TITLE "Electrance"
PERFORMER "The Electrics"
FLAGS DCP
INDEX 01 20:23:59
TRACK 03 AUDIO
TITLE "Electrash"
PERFORMER "The Electrics"
FLAGS DCP
INDEX 01 24:07:07
TRACK 04 AUDIO
TITLE "Electroots"
PERFORMER "The Electrics"
FLAGS DCP
INDEX 01 34:15:07
TRACK 05 AUDIO
TITLE "Electraps"
PERFORMER "The Electrics"
FLAGS DCP
INDEX 01 47:12:51
Доп. информация: Recorded At – Glenn Miller Cafe, Stockholm
 
Состав
Bass – Ingebrigt Haker Flaten
Drums – Raymond Strid
Tenor Saxophone, Clarinet, Bass Clarinet – Sture Ericson
Trumpet, Trumpet [Slide Trumpet] – Axel Dorner
Any questions -> support@pro-jazz.com. По всем вопросам пишите -> support@pro-jazz.com
18:18
152
Нет комментариев. Ваш будет первым!