Вы используете незарегистрированную версию компонента "Вкладки"!

Поиск

(Free Jazz, Free Improvisation) Spunk (Kristin Andersen, Lene Grenager, Maja Solveig Kjelstrup Ratkje, Hild Sofie Tafjord) - Kantarell - 2009, FLAC (tracks+.cue) lossless

Треклист:
Spunk / Kantarell
Жанр: Free Jazz, Free Improvisation
Страна-производитель диска: Norway
Год издания диска: 2009
Издатель (лейбл): Rune Grammofon
Номер по каталогу: RCD 2085
Аудио кодек: FLAC (*.flac)
Тип рипа: tracks+.cue
Битрейт аудио: lossless
Продолжительность: 46:48
Источник (релизер): сетЪ (sashulcha)
Наличие сканов в содержимом раздачи: нет
Треклист:
01 Tremble 6:57
02 The Lake 1:52
03 Bipolarity 10:06
04 Quadralogue 6:04
05 Antisolar Point 2:25
06 Mosegrodd 7:34
07 Ankomst 1:51
08 Ute 2:36
09 Eaten 7:23
 
Содержание индексной карты (.CUE)
REM DATE 2009
REM DISCID 540AF809
REM COMMENT "ExactAudioCopy v0.99pb5"
PERFORMER "Spunk"
TITLE "Kantarell"
FILE "01 - Tremble.wav" WAVE
TRACK 01 AUDIO
TITLE "Tremble"
PERFORMER "Spunk"
INDEX 01 00:00:00
TRACK 02 AUDIO
TITLE "The Lake"
PERFORMER "Spunk"
INDEX 00 06:54:63
FILE "02 - The Lake.wav" WAVE
INDEX 01 00:00:00
TRACK 03 AUDIO
TITLE "Bipolarity"
PERFORMER "Spunk"
INDEX 00 01:48:57
FILE "03 - Bipolarity.wav" WAVE
INDEX 01 00:00:00
TRACK 04 AUDIO
TITLE "Quadralogue"
PERFORMER "Spunk"
INDEX 00 10:02:14
FILE "04 - Quadralogue.wav" WAVE
INDEX 01 00:00:00
TRACK 05 AUDIO
TITLE "Antisolar Point"
PERFORMER "Spunk"
INDEX 00 06:01:65
FILE "05 - Antisolar Point.wav" WAVE
INDEX 01 00:00:00
TRACK 06 AUDIO
TITLE "Mosegrodd"
PERFORMER "Spunk"
INDEX 00 02:21:26
FILE "06 - Mosegrodd.wav" WAVE
INDEX 01 00:00:00
TRACK 07 AUDIO
TITLE "Ankomst"
PERFORMER "Spunk"
INDEX 00 07:31:54
FILE "07 - Ankomst.wav" WAVE
INDEX 01 00:00:00
TRACK 08 AUDIO
TITLE "Ute"
PERFORMER "Spunk"
INDEX 00 01:47:47
FILE "08 - Ute.wav" WAVE
INDEX 01 00:00:00
TRACK 09 AUDIO
TITLE "Eaten"
PERFORMER "Spunk"
INDEX 00 02:32:51
FILE "09 - Eaten.wav" WAVE
INDEX 01 00:00:00
 
Лог создания рипа
Exact Audio Copy V0.99 prebeta 5 from 4. May 2009
EAC extraction logfile from 30. November 2010, 16:31
Spunk / Kantarell
Used drive : HL-DT-STDVDRAM GH22NS50 Adapter: 1 ID: 0
Read mode : Secure
Utilize accurate stream : Yes
Defeat audio cache : Yes
Make use of C2 pointers : No
Read offset correction : 667
Overread into Lead-In and Lead-Out : No
Fill up missing offset samples with silence : Yes
Delete leading and trailing silent blocks : No
Null samples used in CRC calculations : Yes
Used interface : Native Win32 interface for Win NT & 2000
Gap handling : Appended to previous track
Used output format : Internal WAV Routines
Sample format : 44.100 Hz; 16 Bit; Stereo
TOC of the extracted CD
Track | Start | Length | Start sector | End sector
---------------------------------------------------------
1 | 0:00.00 | 6:56.51 | 0 | 31250
2 | 6:56.51 | 1:52.14 | 31251 | 39664
3 | 8:48.65 | 10:06.21 | 39665 | 85135
4 | 18:55.11 | 6:04.28 | 85136 | 112463
5 | 24:59.39 | 2:24.47 | 112464 | 123310
6 | 27:24.11 | 7:33.74 | 123311 | 157359
7 | 34:58.10 | 1:50.43 | 157360 | 165652
8 | 36:48.53 | 2:36.20 | 165653 | 177372
9 | 39:24.73 | 7:23.24 | 177373 | 210621
Track 1
Filename C:\R\01 - Tremble.wav
Pre-gap length 0:00:02.00
Peak level 99.9 %
Track quality 100.0 %
Test CRC C5A2ACF0
Copy CRC C5A2ACF0
Track not present in AccurateRip database
Copy OK
Track 2
Filename C:\R\02 - The Lake.wav
Pre-gap length 0:00:01.84
Peak level 72.6 %
Track quality 100.0 %
Test CRC 23302DAC
Copy CRC 23302DAC
Track not present in AccurateRip database
Copy OK
Track 3
Filename C:\R\03 - Bipolarity.wav
Pre-gap length 0:00:03.42
Peak level 100.0 %
Track quality 99.9 %
Test CRC 0C741C09
Copy CRC 0C741C09
Track not present in AccurateRip database
Copy OK
Track 4
Filename C:\R\04 - Quadralogue.wav
Pre-gap length 0:00:04.09
Peak level 99.9 %
Track quality 100.0 %
Test CRC E79D6DE3
Copy CRC E79D6DE3
Track not present in AccurateRip database
Copy OK
Track 5
Filename C:\R\05 - Antisolar Point.wav
Pre-gap length 0:00:02.50
Peak level 99.9 %
Track quality 100.0 %
Test CRC 5E22EFA9
Copy CRC 5E22EFA9
Track not present in AccurateRip database
Copy OK
Track 6
Filename C:\R\06 - Mosegrodd.wav
Pre-gap length 0:00:03.28
Peak level 94.4 %
Track quality 100.0 %
Test CRC 88C2106E
Copy CRC 88C2106E
Track not present in AccurateRip database
Copy OK
Track 7
Filename C:\R\07 - Ankomst.wav
Pre-gap length 0:00:02.26
Peak level 85.2 %
Track quality 99.9 %
Test CRC 4AEC7F2D
Copy CRC 4AEC7F2D
Track not present in AccurateRip database
Copy OK
Track 8
Filename C:\R\08 - Ute.wav
Pre-gap length 0:00:02.94
Peak level 99.9 %
Track quality 100.0 %
Test CRC 913B9B1F
Copy CRC 913B9B1F
Track not present in AccurateRip database
Copy OK
Track 9
Filename C:\R\09 - Eaten.wav
Pre-gap length 0:00:03.58
Peak level 99.9 %
Track quality 99.9 %
Test CRC 9DB73899
Copy CRC 9DB73899
Track not present in AccurateRip database
Copy OK
None of the tracks are present in the AccurateRip database
No errors occurred
End of status report
 
Состав
Kristin Andersen: trumpet, violin, flutes, recorder
Lene Grenager: cello
Maja Solveig Kjelstrup Ratkje: vocals, theremin, electronics
Hild Sofie Tafjord: French horn, flutes, electronics
По всем вопросам пишите личное сообщение пользователю M0p94ok.
06:19
141
Нет комментариев. Ваш будет первым!