Вы используете незарегистрированную версию компонента "Вкладки"!

Поиск

(Free Jazz, Free Improvisation) Rova Saxophone Quartet - Totally Spinning - 2006, FLAC (tracks) lossless

(Free Jazz, Free Improvisation) Rova Saxophone Quartet - Totally Spinning - 2006, FLAC (tracks) lossless
Треклист:
Rova Saxophone QuartetTotally Spinning
Жанр: Free Jazz, Free Improvisation
Год издания диска: 2006
Издатель (лейбл): Black Saint
Номер по каталогу: 120 206-2
Аудио кодек: FLAC (*.flac)
Тип рипа: tracks
Битрейт аудио: lossless
Продолжительность: 60:28
Источник (релизер): what.cd (weareborg)
Наличие сканов в содержимом раздачи: нет
Треклист:
01 Let's Go Totally Spinning Raskin 8:08
02 Stiction Adams 6:35
03 Radar Rova 4:02
04 Cuernavaca Starlight Adams 7:54
05 Kick It Frith 3:40
06 It's a Journey, Not a Destination Raskn 15:49
07 Preshrunk Adams 5:37
08 Radar (Version 731) Rova 8:11
 
Лог создания рипа
Exact Audio Copy V0.99 prebeta 3 from 28. July 2007
Отчёт EAC об извлечении, выполненном 13. апреля 2008, 15:13
Rova Saxophone Quartet / Totally Spinning
Дисковод: Optiarc DVD RW AD-7170S Adapter: 5 ID: 0
Режим чтения : Достоверность
Использование точного потока : Да
Отключение кэша аудио : Да
Использование указателей C2 : Нет
Коррекция смещения при чтении : 48
Способность читать области Lead-in и Lead-out : Нет
Заполнение пропущенных сэмплов тишиной : Да
Удаление блоков с тишиной в начале и конце : Нет
При вычислениях CRC использовались нулевые сэмплы : Нет
Интерфейс : Встроенный Win32-интерфейс для Win NT/2000
Обработка зазоров : Не обнаружено, добавлено к предыдущему треку
Выходной формат : Внутренние WAV-операции
Формат сэмплов : 44.100 Гц; 16 бит; стерео
TOC извлечённого CD
Трек | Старт | Длительность | Начальный сектор | Конечный сектор
---------------------------------------------------------------------
1 | 0:00.00 | 8:12.09 | 0 | 36908
2 | 8:12.09 | 6:38.68 | 36909 | 66826
3 | 14:51.02 | 4:05.05 | 66827 | 85206
4 | 18:56.07 | 7:59.69 | 85207 | 121200
5 | 26:56.01 | 3:45.15 | 121201 | 138090
6 | 30:41.16 | 15:54.60 | 138091 | 209700
7 | 46:36.01 | 5:41.35 | 209701 | 235310
8 | 52:17.36 | 8:10.11 | 235311 | 272071
Трек 1
Имя файла E:\Rova\Totally Spinning\01 Let's Go Totally Spinning.wav
Пиковый уровень 98.8 %
Качество трека 99.9 %
CRC копии F87B3C52
Копирование... OK
Трек 2
Имя файла E:\Rova\Totally Spinning\02 Stiction.wav
Пиковый уровень 98.8 %
Качество трека 100.0 %
CRC копии 6215D83F
Копирование... OK
Трек 3
Имя файла E:\Rova\Totally Spinning\03 Radar 11-19-01.wav
Пиковый уровень 64.8 %
Качество трека 99.9 %
CRC копии 611E4657
Копирование... OK
Трек 4
Имя файла E:\Rova\Totally Spinning\04 Cuernavaca Starlight For Charles Mingus.wav
Пиковый уровень 97.7 %
Качество трека 100.0 %
CRC копии BA0C575C
Копирование... OK
Трек 5
Имя файла E:\Rova\Totally Spinning\05 Kick It.wav
Пиковый уровень 89.5 %
Качество трека 100.0 %
CRC копии EDBCE504
Копирование... OK
Трек 6
Имя файла E:\Rova\Totally Spinning\06 It's A Journey, Not A Destination.wav
Пиковый уровень 97.7 %
Качество трека 100.0 %
CRC копии 9A87BDBC
Копирование... OK
Трек 7
Имя файла E:\Rova\Totally Spinning\07 Preshrunk.wav
Пиковый уровень 98.8 %
Качество трека 100.0 %
CRC копии 0C95358F
Копирование... OK
Трек 8
Имя файла E:\Rova\Totally Spinning\08 Radar, Version 731.wav
Пиковый уровень 97.7 %
Качество трека 99.9 %
CRC копии D6CAE60D
Копирование... OK
Ошибок не произошло
Конец отчёта
 
Лог проверки качества
AUDIOCHECKER v2.0 beta (build 457) - by Dester - opdester@freemail.hu
~~~~~~~~~~~~~~~~~~~~~~~~~~~~~~~~~~
-=== НЕ РЕДАКТИРУЙТЕ ЭТОТ ФАЙЛ! ===-
Путь: ...\1996-Totally Spinning [2006, Black Saint 120 206-2]
1 -=- Rova - Totally Spinning - 01 - Let's Go Totally Spinning.flac -=- CDDA (100%)
2 -=- Rova - Totally Spinning - 02 - Stiction.flac -=- CDDA (100%)
3 -=- Rova - Totally Spinning - 03 - Radar 11-19-01.flac -=- CDDA (100%)
4 -=- Rova - Totally Spinning - 04 - Cuernavaca Starlight For Charles Mingus.flac -=- CDDA (100%)
5 -=- Rova - Totally Spinning - 05 - Kick It.flac -=- CDDA (99%)
6 -=- Rova - Totally Spinning - 06 - It's A Journey, Not A Destination.flac -=- CDDA (100%)
7 -=- Rova - Totally Spinning - 07 - Preshrunk.flac -=- CDDA (100%)
8 -=- Rova - Totally Spinning - 08 - Radar, Version 731.flac -=- CDDA (100%)
Сводка 99,88% CDDA
123946132
 
Об альбоме (сборнике)
Review by Scott Yanow
Although Totally Spinning came out in 2006, it was recorded back in 1996. Rova, famous as being an avant-garde saxophone quartet, performs eight originals (all but Fred Frith's "Kick It" came from the band) and plays with surprising lyricism, often emphasizing strong melodies and catchy ensemble work. The improvising is advanced, emotional, and sophisticated with baritonist Jon Raskin generally taking honors. This is one of Rova's more accessible projects, although the music certainly has its adventurous and passionate moments. Recommended.
Any questions -> support@pro-jazz.com. По всем вопросам пишите -> support@pro-jazz.com
03:20
201
Нет комментариев. Ваш будет первым!