Вы используете незарегистрированную версию компонента "Вкладки"!

Поиск

(Free Jazz, Free Improvisation) Profound Sound Trio (Andrew Cyrille, Paul Dunmall, Henry Grimes) - Opus De Life - 2009, FLAC (image+.cue), lossless

(Free Jazz, Free Improvisation) Profound Sound Trio (Andrew Cyrille, Paul Dunmall, Henry Grimes) - Opus De Life - 2009, FLAC (image+.cue), lossless
Треклист:
Profound Sound Trio / Opus De Life
Жанр: Free Jazz, Free Improvisation
Страна-производитель диска: US
Год издания диска: 2009
Издатель (лейбл): Porter Records
Номер по каталогу: PRCD - 4032
Аудиокодек: FLAC (*.flac)
Тип рипа: image+.cue
Битрейт аудио: lossless
Продолжительность: 49:20
Источник (релизер): cd
Наличие сканов в содержимом раздачи: нет
Треклист:
1 This Way, Please 15:16
2 Call Paul 5:48
3 Whirligigging 3:23
4 Beyonder 17:24
5 Futurity 7:28
 
Лог создания рипа
Exact Audio Copy V1.0 beta 2 from 29. April 2011
EAC extraction logfile from 28. November 2011, 10:36
Profound Sound Trio / Opus De Life
Used drive : Optiarc DVD RW AD-7170A Adapter: 0 ID: 0
Read mode : Secure
Utilize accurate stream : Yes
Defeat audio cache : Yes
Make use of C2 pointers : No
Read offset correction : 48
Overread into Lead-In and Lead-Out : No
Fill up missing offset samples with silence : Yes
Delete leading and trailing silent blocks : No
Null samples used in CRC calculations : Yes
Used interface : Native Win32 interface for Win NT & 2000
Used output format : User Defined Encoder
Selected bitrate : 320 kBit/s
Quality : High
Add ID3 tag : No
Command line compressor : C:\Program Files\Exact Audio Copy\Flac\flac.exe
Additional command line options : -V -8 -T "Date=%year%" -T "Genre=%genre%" %source%
TOC of the extracted CD
Track | Start | Length | Start sector | End sector
---------------------------------------------------------
1 | 0:00.00 | 15:16.48 | 0 | 68747
2 | 15:16.48 | 5:48.11 | 68748 | 94858
3 | 21:04.59 | 3:23.27 | 94859 | 110110
4 | 24:28.11 | 17:24.13 | 110111 | 188423
5 | 41:52.24 | 7:28.01 | 188424 | 222024
Range status and errors
Selected range
Filename C:\EAC\Downloads\Profound Sound Trio - Opus De Life.wav
Peak level 100.0 %
Extraction speed 1.9 X
Range quality 100.0 %
Test CRC 52B41FA9
Copy CRC 52B41FA9
Copy OK
No errors occurred
AccurateRip summary
Track 1 accurately ripped (confidence 2) [D0293D8D] (AR v1)
Track 2 accurately ripped (confidence 2) [7032D1C8] (AR v1)
Track 3 accurately ripped (confidence 2) [A39F99FC] (AR v1)
Track 4 accurately ripped (confidence 2) [2470B987] (AR v1)
Track 5 accurately ripped (confidence 2) [30A38200] (AR v1)
All tracks accurately ripped
End of status report
==== Log checksum DE694C2CBE1380BDB61A1193CCBB1F4646B3494F8CE9A73B744DDDDA88DCFCFA ====
 
Содержание индексной карты (.CUE)
REM GENRE Jazz
REM DATE 2009
REM DISCID 3B0B9005
REM COMMENT "ExactAudioCopy v1.0b2"
PERFORMER "Profound Sound Trio"
TITLE "Opus De Life"
FILE "Profound Sound Trio - Opus De Life.flac" WAVE
TRACK 01 AUDIO
TITLE "This Way, Please"
PERFORMER "Profound Sound Trio"
INDEX 01 00:00:00
TRACK 02 AUDIO
TITLE "Call Paul"
PERFORMER "Profound Sound Trio"
INDEX 01 15:16:48
TRACK 03 AUDIO
TITLE "Whirligigging"
PERFORMER "Profound Sound Trio"
INDEX 01 21:04:59
TRACK 04 AUDIO
TITLE "Beyonder"
PERFORMER "Profound Sound Trio"
INDEX 01 24:28:11
TRACK 05 AUDIO
TITLE "Futurity"
PERFORMER "Profound Sound Trio"
INDEX 01 41:52:24
Доп. информация: Recorded in concert at the Vision Festival, Clemente Soto Velez Cultural Center, New York City, USA, 2008-06-14
 
Состав
Double Bass, Violin – Henry Grimes
Drums – Andrew Cyrille
Tenor Saxophone, Bagpipes – Paul Dunmall
Any questions -> support@pro-jazz.com. По всем вопросам пишите -> support@pro-jazz.com
18:53
242
Нет комментариев. Ваш будет первым!