Вы используете незарегистрированную версию компонента "Вкладки"!

Поиск

(Free Jazz, Free Improvisation) Peter Kowald & Damon Smith - Mirrors - Broken But No Dust - 2001, FLAC (tracks) lossless

Треклист:
Peter Kowald & Damon Smith / Mirrors - Broken But No Dust
Жанр: Free Jazz, Free Improvisation
Страна-производитель диска: США
Год издания диска: 2001
Издатель (лейбл): Balance Point Acoustics
Номер по каталогу: BPA 001
Страна: Германия, США
Аудио кодек: FLAC (*.flac)
Тип рипа: tracks
Битрейт аудио: lossless
Продолжительность: 1:00:59
Источник (релизер): soulseek (marcin_k123)
Наличие сканов в содержимом раздачи: нет
Треклист:
Broken Mirrors April 28th, 2000 1&2 (31:36)
1 Untitled
2 Untitled
Reflections On April 28th, 2000 1-7
3 Untitled 3:41
4 Untitled 3:55
5 Untitled 3:09
6 Untitled 4:35
7 Untitled 2:28
8 Untitled 3:53
9 Untitled 7:20
 
Лог создания рипа
dBpoweramp Release 13.2 Digital Audio Extraction Log from 3 wrzeњnia 2010 10:46
Drive & Settings
----------------
Ripping with drive 'E: [TSSTcorp - CDDVDW SH-S223C ]', Drive offset: 697, Overread Lead-in/out: No
AccurateRip: Active, Using C2: Yes, Cache: 1024 KB, FUA Cache Invalidate: No
Pass 1 Drive Speed: Max, Pass 2 Drive Speed: 8
Ultra:: Vary Drive Speed: No, Min Passes: 2, Max Passes: 4, Finish After Clean Passes: 2
Bad Sector Re-rip:: Drive Speed: Max, Maximum Re-reads: 34
Encoder: FLAC -compression-level-5 -verify
Extraction Log
--------------
Track 1: Ripped LBA 0 to 70102 (15:34) in 2:24. Filename: D:\FLAC JACEK\Peter Kowald & Damon Smith\Mirrors - Broken But No Dust\Peter Kowald & Damon Smith - 01 - 1.flac
Secure [Pass 1, Ultra 1 to 2]
CRC32: 38DA94A5 AccurateRip CRC: 020D647B [DiscID: 009-0019d4cf-00ae7d40-7d0e4b09-1]
Track 2: Ripped LBA 70102 to 142563 (16:06) in 1:44. Filename: D:\FLAC JACEK\Peter Kowald & Damon Smith\Mirrors - Broken But No Dust\Peter Kowald & Damon Smith - 02 - 2.flac
Secure [Pass 1, Ultra 1 to 2]
CRC32: 45B7426E AccurateRip CRC: 4E81D1B8 [DiscID: 009-0019d4cf-00ae7d40-7d0e4b09-2]
Track 3: Ripped LBA 142563 to 159345 (3:43) in 0:21. Filename: D:\FLAC JACEK\Peter Kowald & Damon Smith\Mirrors - Broken But No Dust\Peter Kowald & Damon Smith - 03 - 3.flac
Secure [Pass 1, Ultra 1 to 2]
CRC32: FAF126DD AccurateRip CRC: 25B854F6 [DiscID: 009-0019d4cf-00ae7d40-7d0e4b09-3]
Track 4: Ripped LBA 159345 to 177169 (3:57) in 0:22. Filename: D:\FLAC JACEK\Peter Kowald & Damon Smith\Mirrors - Broken But No Dust\Peter Kowald & Damon Smith - 04 - 4.flac
Secure [Pass 1, Ultra 1 to 2]
CRC32: F1AB80FA AccurateRip CRC: 5C6A3F69 [DiscID: 009-0019d4cf-00ae7d40-7d0e4b09-4]
Track 5: Ripped LBA 177169 to 191611 (3:12) in 0:17. Filename: D:\FLAC JACEK\Peter Kowald & Damon Smith\Mirrors - Broken But No Dust\Peter Kowald & Damon Smith - 05 - 5.flac
Secure [Pass 1, Ultra 1 to 2]
CRC32: 24815FFB AccurateRip CRC: 5BC2FB09 [DiscID: 009-0019d4cf-00ae7d40-7d0e4b09-5]
Track 6: Ripped LBA 191611 to 212433 (4:37) in 0:24. Filename: D:\FLAC JACEK\Peter Kowald & Damon Smith\Mirrors - Broken But No Dust\Peter Kowald & Damon Smith - 06 - 6.flac
Secure [Pass 1, Ultra 1 to 2]
CRC32: BA424ADE AccurateRip CRC: E4C0949B [DiscID: 009-0019d4cf-00ae7d40-7d0e4b09-6]
Track 7: Ripped LBA 212433 to 223818 (2:31) in 0:12. Filename: D:\FLAC JACEK\Peter Kowald & Damon Smith\Mirrors - Broken But No Dust\Peter Kowald & Damon Smith - 07 - 7.flac
Secure [Pass 1, Ultra 1 to 2]
CRC32: 0915F740 AccurateRip CRC: E2E4BAC5 [DiscID: 009-0019d4cf-00ae7d40-7d0e4b09-7]
Track 8: Ripped LBA 223818 to 241412 (3:54) in 0:19. Filename: D:\FLAC JACEK\Peter Kowald & Damon Smith\Mirrors - Broken But No Dust\Peter Kowald & Damon Smith - 08 - 8.flac
Secure [Pass 1, Ultra 1 to 2]
CRC32: 045E6A9B AccurateRip CRC: 534BF26F [DiscID: 009-0019d4cf-00ae7d40-7d0e4b09-8]
Track 9: Ripped LBA 241412 to 274426 (7:20) in 0:34. Filename: D:\FLAC JACEK\Peter Kowald & Damon Smith\Mirrors - Broken But No Dust\Peter Kowald & Damon Smith - 09 - 9.flac
Secure [Pass 1, Ultra 1 to 2]
CRC32: 43810D87 AccurateRip CRC: A5CC3F2F [DiscID: 009-0019d4cf-00ae7d40-7d0e4b09-9]
--------------
9 Tracks Ripped Securely
 
Лог проверки качества
AUDIOCHECKER v2.0 beta (build 457) - by Dester - opdester@freemail.hu
~~~~~~~~~~~~~~~~~~~~~~~~~~~~~~~~~~
-=== DO NOT EDIT THIS FILE! ===-
Path: ...\mirrors - broken but no dust
1 -=- Peter Kowald & Damon Smith - 01 - 1.flac -=- CDDA (100%)
2 -=- Peter Kowald & Damon Smith - 02 - 2.flac -=- CDDA (100%)
3 -=- Peter Kowald & Damon Smith - 03 - 3.flac -=- CDDA (100%)
4 -=- Peter Kowald & Damon Smith - 04 - 4.flac -=- CDDA (100%)
5 -=- Peter Kowald & Damon Smith - 05 - 5.flac -=- CDDA (99%)
6 -=- Peter Kowald & Damon Smith - 06 - 6.flac -=- CDDA (100%)
7 -=- Peter Kowald & Damon Smith - 07 - 7.flac -=- CDDA (100%)
8 -=- Peter Kowald & Damon Smith - 08 - 8.flac -=- CDDA (100%)
9 -=- Peter Kowald & Damon Smith - 09 - 9.flac -=- CDDA (100%)
Summary 99,89% CDDA
133772676
 
Состав
Damon Smith - double bass
Peter Kowald - double bass
Any questions -> support@pro-jazz.com. По всем вопросам пишите -> support@pro-jazz.com
03:19
202
Нет комментариев. Ваш будет первым!