Вы используете незарегистрированную версию компонента "Вкладки"!

Поиск

(Free Jazz, Free Improvisation) Peter Brotzmann, Peter Friis Nielsen, Peeter Uuskyla - Noise of Wings - 1999, FLAC (tracks+.cue) lossless

(Free Jazz, Free Improvisation) Peter Brotzmann, Peter Friis Nielsen, Peeter Uuskyla - Noise of Wings - 1999, FLAC (tracks+.cue) lossless
Треклист:
Peter Brötzmann, Peter Friis Nielsen, Peeter Uuskyla / Noise of Wings
Жанр: Free Jazz, Free Improvisation
Год издания диска: 1999
Издатель (лейбл): Slask
Номер по каталогу: SLACD019
Страна: Германия, Швеция, Дания
Аудио кодек: FLAC (*.flac)
Тип рипа: tracks+.cue
Битрейт аудио: lossless
Продолжительность: 1:06:39
Источник (релизер): вот.сиди (box)
Наличие сканов в содержимом раздачи: нет
Треклист:
1. Not a Soul 8:10
2. In My Old Rags 9:24
3. Cut 'Em Out 8:20
4. We Have (Not) Much Further To Go 6:32
5. Noise of Wings 5:44
6. A Real Dilemma, This One 8:18
7. Blue Jay in a Snowstorm... Waiting 20:08
recorded march 14, 1999 at bohus sound recording, kungalv, sweden
 
Лог создания рипа
Exact Audio Copy V0.99 prebeta 5 from 4. May 2009
EAC extraction logfile from 11. January 2011, 12:40
Peter Brotzmann / Noise of Wings
Used drive : SAMSUNG CDRW/DVD SM-308B Adapter: 0 ID: 0
Read mode : Secure
Utilize accurate stream : Yes
Defeat audio cache : Yes
Make use of C2 pointers : No
Read offset correction : 120
Overread into Lead-In and Lead-Out : No
Fill up missing offset samples with silence : Yes
Delete leading and trailing silent blocks : No
Null samples used in CRC calculations : Yes
Used interface : Native Win32 interface for Win NT & 2000
Gap handling : Appended to previous track
Used output format : User Defined Encoder
Selected bitrate : 192 kBit/s
Quality : High
Add ID3 tag : Yes
Command line compressor : C:\Documents and Settings\jhudak\Desktop\Joe\Exact Audio Copy\FLAC\flac.exe
Additional command line options : -V -8 -T "artist=%a" -T "title=%t" -T "album=%g" -T "date=%y" -T "tracknumber=%n" -T "genre=%m" %s
TOC of the extracted CD
Track | Start | Length | Start sector | End sector
---------------------------------------------------------
1 | 0:00.00 | 8:10.50 | 0 | 36799
2 | 8:10.50 | 9:24.10 | 36800 | 79109
3 | 17:34.60 | 8:20.72 | 79110 | 116681
4 | 25:55.57 | 6:32.15 | 116682 | 146096
5 | 32:27.72 | 5:44.55 | 146097 | 171951
6 | 38:12.52 | 8:18.28 | 171952 | 209329
7 | 46:31.05 | 20:08.00 | 209330 | 299929
Track 1
Filename C:\Documents and Settings\jhudak\Desktop\Joe\Peter Brotzmann - Noise of Wings (1999)\Peter Brotzmann - 01 - Not A Soul.wav
Pre-gap length 0:00:02.00
Peak level 100.0 %
Track quality 100.0 %
Test CRC 77CDA366
Copy CRC 77CDA366
Track not present in AccurateRip database
Copy OK
Track 2
Filename C:\Documents and Settings\jhudak\Desktop\Joe\Peter Brotzmann - Noise of Wings (1999)\Peter Brotzmann - 02 - In My Old Rags.wav
Pre-gap length 0:00:03.08
Peak level 100.0 %
Track quality 100.0 %
Test CRC 3C3950CF
Copy CRC 3C3950CF
Track not present in AccurateRip database
Copy OK
Track 3
Filename C:\Documents and Settings\jhudak\Desktop\Joe\Peter Brotzmann - Noise of Wings (1999)\Peter Brotzmann - 03 - Cut 'Em Out.wav
Pre-gap length 0:00:02.03
Peak level 100.0 %
Track quality 100.0 %
Test CRC 6D604EA3
Copy CRC 6D604EA3
Track not present in AccurateRip database
Copy OK
Track 4
Filename C:\Documents and Settings\jhudak\Desktop\Joe\Peter Brotzmann - Noise of Wings (1999)\Peter Brotzmann - 04 - We Have (Not) Much Further To Go.wav
Pre-gap length 0:00:02.43
Peak level 100.0 %
Track quality 100.0 %
Test CRC 2158D420
Copy CRC 2158D420
Track not present in AccurateRip database
Copy OK
Track 5
Filename C:\Documents and Settings\jhudak\Desktop\Joe\Peter Brotzmann - Noise of Wings (1999)\Peter Brotzmann - 05 - Noise Like Wings.wav
Pre-gap length 0:00:03.37
Peak level 100.0 %
Track quality 100.0 %
Test CRC 3C588E60
Copy CRC 3C588E60
Track not present in AccurateRip database
Copy OK
Track 6
Filename C:\Documents and Settings\jhudak\Desktop\Joe\Peter Brotzmann - Noise of Wings (1999)\Peter Brotzmann - 06 - A Real Dilemma, This One.wav
Pre-gap length 0:00:03.69
Peak level 100.0 %
Track quality 100.0 %
Test CRC E163DE47
Copy CRC E163DE47
Track not present in AccurateRip database
Copy OK
Track 7
Filename C:\Documents and Settings\jhudak\Desktop\Joe\Peter Brotzmann - Noise of Wings (1999)\Peter Brotzmann - 07 - Blue Jay In A Snowstorm...Waiting.wav
Pre-gap length 0:00:03.03
Peak level 100.0 %
Track quality 100.0 %
Test CRC FB4FB050
Copy CRC FB4FB050
Track not present in AccurateRip database
Copy OK
None of the tracks are present in the AccurateRip database
No errors occurred
End of status report
 
Содержание индексной карты (.CUE)
REM GENRE Jazz
REM DATE 1999
REM DISCID 6C0F9F07
REM COMMENT "ExactAudioCopy v0.99pb5"
PERFORMER "Peter Brotzmann"
TITLE "Noise of Wings"
FILE "Peter Brotzmann - Noise of Wings (1999)\Peter Brotzmann - 01 - Not A Soul.wav" WAVE
TRACK 01 AUDIO
TITLE "Not A Soul"
PERFORMER "Peter Brotzmann"
INDEX 01 00:00:00
TRACK 02 AUDIO
TITLE "In My Old Rags"
PERFORMER "Peter Brotzmann"
INDEX 00 08:08:15
FILE "Peter Brotzmann - Noise of Wings (1999)\Peter Brotzmann - 02 - In My Old Rags.wav" WAVE
INDEX 01 00:00:00
TRACK 03 AUDIO
TITLE "Cut 'Em Out"
PERFORMER "Peter Brotzmann"
INDEX 00 09:22:55
FILE "Peter Brotzmann - Noise of Wings (1999)\Peter Brotzmann - 03 - Cut 'Em Out.wav" WAVE
INDEX 01 00:00:00
TRACK 04 AUDIO
TITLE "We Have (Not) Much Further To Go"
PERFORMER "Peter Brotzmann"
INDEX 00 08:19:02
FILE "Peter Brotzmann - Noise of Wings (1999)\Peter Brotzmann - 04 - We Have (Not) Much Further To Go.wav" WAVE
INDEX 01 00:00:00
TRACK 05 AUDIO
TITLE "Noise Like Wings"
PERFORMER "Peter Brotzmann"
INDEX 00 06:29:30
FILE "Peter Brotzmann - Noise of Wings (1999)\Peter Brotzmann - 05 - Noise Like Wings.wav" WAVE
INDEX 01 00:00:00
TRACK 06 AUDIO
TITLE "A Real Dilemma, This One"
PERFORMER "Peter Brotzmann"
INDEX 00 05:41:35
FILE "Peter Brotzmann - Noise of Wings (1999)\Peter Brotzmann - 06 - A Real Dilemma, This One.wav" WAVE
INDEX 01 00:00:00
TRACK 07 AUDIO
TITLE "Blue Jay In A Snowstorm...Waiting"
PERFORMER "Peter Brotzmann"
INDEX 00 08:16:00
FILE "Peter Brotzmann - Noise of Wings (1999)\Peter Brotzmann - 07 - Blue Jay In A Snowstorm...Waiting.wav" WAVE
INDEX 01 00:00:00
 
Лог проверки качества
AUDIOCHECKER v2.0 beta (build 457) - by Dester - opdester@freemail.hu
~~~~~~~~~~~~~~~~~~~~~~~~~~~~~~~~~~
-=== DO NOT EDIT THIS FILE! ===-
Path: ...\Peter Brotzmann - Noise of Wings (1999)
1 -=- Peter Brotzmann - 01 - Not A Soul.flac -=- CDDA (100%)
2 -=- Peter Brotzmann - 02 - In My Old Rags.flac -=- CDDA (100%)
3 -=- Peter Brotzmann - 03 - Cut 'Em Out.flac -=- CDDA (100%)
4 -=- Peter Brotzmann - 04 - We Have (Not) Much Further To Go.flac -=- CDDA (100%)
5 -=- Peter Brotzmann - 05 - Noise Like Wings.flac -=- CDDA (100%)
6 -=- Peter Brotzmann - 06 - A Real Dilemma, This One.flac -=- CDDA (100%)
7 -=- Peter Brotzmann - 07 - Blue Jay In A Snowstorm...Waiting.flac -=- CDDA (100%)
Summary 100,00% CDDA
90182052
 
Состав
Peter Brötzmann - tenor saxophone, tarogato, clarinet
Peter Friis Nielsen - electric bass
Peeter Uuskyla - drums
По всем вопросам пишите личное сообщение пользователю M0p94ok.
07:33
175
Нет комментариев. Ваш будет первым!