Вы используете незарегистрированную версию компонента "Вкладки"!

Поиск

(Free Jazz, Free Improvisation) Peter Brotzmann Chicago Tentet featuring Mike Pearson - Be Music, Night [Okkadisk OD12059] - 2005, FLAC (tracks+.cue), lossless

Треклист:
Peter Brötzmann Chicago Tentet featuring Mike Pearson - Be Music, Night: A homage to Kenneth Patchen
Жанр: Free Jazz, Free Improvisation
Год выпуска диска: 2005
Производитель диска: Okkadisk OD12059
Аудио кодек: FLAC
Тип рипа: tracks+.cue
Битрейт аудио: lossless
Продолжительность: 65:06
Треклист:
01. Part I | 12:40
02. Part II | 41:36
03. Part III | 10:50
Musicians:
Peter Brötzmann — bass clarinet, b-flat clarinet
Mats Gustafsson — baritone sax, bass clarinet
Ken Vandermark — baritone sax, b-flat-clarinet
Joe McPhee — trumpet/ alto sax
Jeb Bishop — trombone
Fred Lonberg-Holm — cello
Kent Kessler — bass
Paal Nilssen-Love — drums
Michael Zerang — drums
Mike Pearson — voice
 
Recording Info:
Subtitled "A homage to Kenneth Patchen".
Recorded at Wall to Wall, Chicago by Bob Weston on November 5 and 6 2004
Mixed by at Semaphore, Chicago by Bob Weston, Ken Vandermark and Brötzm
on January 10 and 11 2005
Mastered at John Golden Mastering
Produced by Brötzm
Executive producer: Bruno Johnson
Thanks to Okka Disk, Paula Froehle, Tim Daisy, The Kenneth Patchen Estate
and the Elastic Arts Foundation
Acknowledgement: The Chicago Humanities Festival 2004
 
EAC extraction logfile:
EAC extraction logfile from 6. December 2006, 8:28 for CD
The Peter Brotzmann Chicago Tentet / Be Music, Night
Used drive : HL-DT-STRW/DVD GCC-4481B Adapter: 0 ID: 0
Read mode : Secure with NO C2, accurate stream, disable cache
Read offset correction : 6
Overread into Lead-In and Lead-Out : No
Used output format : Internal WAV Routines
44.100 Hz; 16 Bit; Stereo
Other options :
Fill up missing offset samples with silence : Yes
Delete leading and trailing silent blocks : No
Installed external ASPI interface
Track 1
Filename C:\iwals\The Peter Brotzmann Chicago Tentet - Be Music, Night\01 - Part I.wav
Pre-gap length 0:00:02.00
Peak level 99.9 %
Track quality 99.9 %
Test CRC 5D9F77C0
Copy CRC 5D9F77C0
Copy OK
Track 2
Filename C:\iwals\The Peter Brotzmann Chicago Tentet - Be Music, Night\02 - Part II.wav
Peak level 100.0 %
Track quality 99.9 %
Test CRC 924ED94F
Copy CRC 924ED94F
Copy OK
Track 3
Filename C:\iwals\The Peter Brotzmann Chicago Tentet - Be Music, Night\03 - Part III.wav
Peak level 100.0 %
Track quality 99.9 %
Test CRC 7C47808A
Copy CRC 7C47808A
Copy OK
No errors occured
End of status report
 
CUE
REM GENRE Free Jazz
REM DATE 2005
PERFORMER "The Peter Brötzmann Chicago Tentet"
TITLE "Be Music, Night"
FILE "01 - Part I.flac" WAVE
TRACK 01 AUDIO
TITLE "Part I"
INDEX 01 00:00:00
FILE "02 - Part II.flac" WAVE
TRACK 02 AUDIO
TITLE "Part II"
INDEX 01 00:00:00
FILE "03 - Part III.flac" WAVE
TRACK 03 AUDIO
TITLE "Part III"
INDEX 01 00:00:00
downloaded from what.cd thanks a lot to wanx
Any questions -> support@pro-jazz.com. По всем вопросам пишите -> support@pro-jazz.com
02:35
158
Нет комментариев. Ваш будет первым!