Вы используете незарегистрированную версию компонента "Вкладки"!

Поиск

(Free Jazz, Free Improvisation) Peter Brotzmann & Paal Nilssen-Love - SweetSweat - 2008, FLAC (tracks+.cue), lossless

Треклист:
Peter Brötzmann & Paal Nilssen-Love - SweetSweat
Жанр: Free Jazz, Free Improvisation
Год выпуска диска: 2008
Производитель диска: Norway
Аудио кодек: FLAC
Тип рипа: tracks+.cue
Битрейт аудио: lossless
Продолжительность: 63:49
Трэклист:
1. SweetSweat 12:31
2. Burnt Sugar 34:21
3. Never Enough 10:33
4. Weird Blue 7:06
Credits:
Clarinet, Saxophone [Alto, Tenor], Tárogató - Peter Brötzmann
Drums, Percussion - Paal Nilssen-Love
Recorded By - Frode Gjerstad
Notes:
Recorded live in concert on May 10th 2006 at Sting Jazzklubb Mai Jazz Festival / Stavanger / Norway.
 
XLD extraction logfile:
X Lossless Decoder version 20090215 (100.1)
XLD extraction logfile from 2009-03-03 17:54:12 -0800
Peter Brötzmann and Paal Nilssen-Love / Sweetsweat
Used drive : MATSHITA DVD-R UJ-85J (revision FCQ5)
Use cdparanoia mode : YES (CDParanoia III 10.2 engine)
Disable audio cache : OK for the drive with cache less than 2750KB
Make use of C2 pointers : NO
Read offset correction : 102
Max retry count : 100
TOC of the extracted CD
Track | Start | Length | Start sector | End sector
---------------------------------------------------------
1 | 00:00:00 | 12:21:19 | 0 | 55593
2 | 12:21:19 | 34:08:29 | 55594 | 209222
3 | 46:29:48 | 10:22:34 | 209223 | 255906
4 | 56:52:07 | 06:57:25 | 255907 | 287206
Track 01
Filename : /Users/russellstokke/Desktop/01 Sweetsweat.flac
/Users/russellstokke/Desktop/01 Sweetsweat.mp3
CRC32 hash (test run) : 87ECD935
CRC32 hash : 87ECD935
CRC32 hash (skip zero) : B020B57E
AccurateRip signature : B8ACF79F
->Track not present in AccurateRip database.
Statistics
Read error : 0
Skipped (treated as error) : 0
Edge jitter error (maybe fixed) : 0
Atom jitter error (maybe fixed) : 0
Drift error (maybe fixed) : 0
Dropped bytes error (maybe fixed) : 0
Duplicated bytes error (maybe fixed) : 0
Inconsistency in error sectors : 0
Track 02
Filename : /Users/russellstokke/Desktop/02 Burnt Sugar.flac
/Users/russellstokke/Desktop/02 Burnt Sugar.mp3
CRC32 hash (test run) : 641B3DDE
CRC32 hash : 641B3DDE
CRC32 hash (skip zero) : 56602FA8
AccurateRip signature : 542C0A2C
->Track not present in AccurateRip database.
Statistics
Read error : 0
Skipped (treated as error) : 0
Edge jitter error (maybe fixed) : 0
Atom jitter error (maybe fixed) : 0
Drift error (maybe fixed) : 0
Dropped bytes error (maybe fixed) : 0
Duplicated bytes error (maybe fixed) : 0
Inconsistency in error sectors : 0
Track 03
Filename : /Users/russellstokke/Desktop/03 Never Enough.flac
/Users/russellstokke/Desktop/03 Never Enough.mp3
CRC32 hash (test run) : FDB4CE1C
CRC32 hash : FDB4CE1C
CRC32 hash (skip zero) : 2E9CF3C6
AccurateRip signature : 3B0CA394
->Track not present in AccurateRip database.
Statistics
Read error : 0
Skipped (treated as error) : 0
Edge jitter error (maybe fixed) : 0
Atom jitter error (maybe fixed) : 0
Drift error (maybe fixed) : 0
Dropped bytes error (maybe fixed) : 0
Duplicated bytes error (maybe fixed) : 0
Inconsistency in error sectors : 0
Track 04
Filename : /Users/russellstokke/Desktop/04 Weird Blue.flac
/Users/russellstokke/Desktop/04 Weird Blue.mp3
CRC32 hash (test run) : F2B643B3
CRC32 hash : F2B643B3
CRC32 hash (skip zero) : 89AFE802
AccurateRip signature : C8079983
->Track not present in AccurateRip database.
Statistics
Read error : 0
Skipped (treated as error) : 0
Edge jitter error (maybe fixed) : 0
Atom jitter error (maybe fixed) : 0
Drift error (maybe fixed) : 0
Dropped bytes error (maybe fixed) : 0
Duplicated bytes error (maybe fixed) : 0
Inconsistency in error sectors : 0
No errors occurred
End of status report
 
album info:
SweetSweat is a bracing collaborative effort between legendary free jazz saxophonist Peter Brötzmann and Norwegian drummer Paal Nillssen-Love. SweetSweat's title accurately evokes the transcendent musical athleticism on display here. Brötzmann's unearthly, paint-peeling intonations remain as startling and as revelatory as they were when first unleashed on 1968's seminal Machine Gun.
downloaded from what.cd thanks a lot to toerag
Any questions -> support@pro-jazz.com. По всем вопросам пишите -> support@pro-jazz.com
17:51
176
Нет комментариев. Ваш будет первым!