Вы используете незарегистрированную версию компонента "Вкладки"!

Поиск

(Free Jazz, Free Improvisation) Peter Brotzmann, Albert Mangelsdorff, Gunter Sommer - Pica Pica - 2006, FLAC (tracks+.cue) lossless

(Free Jazz, Free Improvisation) Peter Brotzmann, Albert Mangelsdorff, Gunter Sommer - Pica Pica - 2006, FLAC (tracks+.cue) lossless
Треклист:
Peter Brötzmann, Albert Mangelsdorff, Günter Sommer / Pica Pica
Жанр: Free Jazz, Free Improvisation
Страна-производитель диска: США
Год издания диска: 2006
Издатель (лейбл): Atavistic
Номер по каталогу: UMS258CD (reissue of FMP 1050)
Страна: Германия
Аудио кодек: FLAC (*.flac)
Тип рипа: tracks+.cue
Битрейт аудио: lossless
Продолжительность: 42:00
Источник (релизер): вот сиди (box)
Наличие сканов в содержимом раздачи: нет
Треклист:
1. Instant tears (Mangelsdorff/Brötzmann) 20:43
2. Wie du mir, so ich dir noch lange nicht (Sommer) 17:05
3. Pica Pica (Brötzmann) 3:59
Recorded during the "Jazzfest Unna" Stadthalle, on September 18th 1982.
 
Лог создания рипа
Exact Audio Copy V0.99 prebeta 5 from 4. May 2009
EAC extraction logfile from 11. January 2011, 11:16
Peter Brцtzmann / Pica Pica
Used drive : SAMSUNG CDRW/DVD SM-308B Adapter: 0 ID: 0
Read mode : Secure
Utilize accurate stream : Yes
Defeat audio cache : Yes
Make use of C2 pointers : No
Read offset correction : 120
Overread into Lead-In and Lead-Out : No
Fill up missing offset samples with silence : Yes
Delete leading and trailing silent blocks : No
Null samples used in CRC calculations : Yes
Used interface : Native Win32 interface for Win NT & 2000
Gap handling : Appended to previous track
Used output format : User Defined Encoder
Selected bitrate : 192 kBit/s
Quality : High
Add ID3 tag : Yes
Command line compressor : C:\Documents and Settings\jhudak\Desktop\Joe\Exact Audio Copy\FLAC\flac.exe
Additional command line options : -V -8 -T "artist=%a" -T "title=%t" -T "album=%g" -T "date=%y" -T "tracknumber=%n" -T "genre=%m" %s
TOC of the extracted CD
Track | Start | Length | Start sector | End sector
---------------------------------------------------------
1 | 0:00.00 | 20:43.55 | 0 | 93279
2 | 20:43.55 | 17:14.56 | 93280 | 170885
3 | 37:58.36 | 4:01.20 | 170886 | 188980
Track 1
Filename C:\Documents and Settings\jhudak\Desktop\Joe\Peter Brцtzmann - Pica Pica (1982)\Peter Brцtzmann - 01 - Instant Tears.wav
Pre-gap length 0:00:02.00
Peak level 96.8 %
Track quality 99.9 %
Test CRC 3637BF3E
Copy CRC 3637BF3E
Accurately ripped (confidence 2) [AEE2C852]
Copy OK
Track 2
Filename C:\Documents and Settings\jhudak\Desktop\Joe\Peter Brцtzmann - Pica Pica (1982)\Peter Brцtzmann - 02 - Wie Du Mir, So Ich Dir Noch Lange Night.wav
Peak level 81.2 %
Track quality 100.0 %
Test CRC 0933C775
Copy CRC 0933C775
Accurately ripped (confidence 2) [1E9FFF4F]
Copy OK
Track 3
Filename C:\Documents and Settings\jhudak\Desktop\Joe\Peter Brцtzmann - Pica Pica (1982)\Peter Brцtzmann - 03 - Pica Pica.wav
Peak level 86.2 %
Track quality 100.0 %
Test CRC EF86FE07
Copy CRC EF86FE07
Accurately ripped (confidence 2) [D782652B]
Copy OK
All tracks accurately ripped
No errors occurred
End of status report
 
Содержание индексной карты (.CUE)
REM GENRE Jazz
REM DATE 1982
REM DISCID 1A09D703
REM COMMENT "ExactAudioCopy v0.99pb5"
PERFORMER "Peter Brцtzmann"
TITLE "Pica Pica"
FILE "Peter Brцtzmann - Pica Pica (1982)\Peter Brцtzmann - 01 - Instant Tears.wav" WAVE
TRACK 01 AUDIO
TITLE "Instant Tears"
PERFORMER "Peter Brцtzmann"
INDEX 01 00:00:00
FILE "Peter Brцtzmann - Pica Pica (1982)\Peter Brцtzmann - 02 - Wie Du Mir, So Ich Dir Noch Lange Night.wav" WAVE
TRACK 02 AUDIO
TITLE "Wie Du Mir, So Ich Dir Noch Lange Night"
PERFORMER "Peter Brцtzmann"
INDEX 01 00:00:00
FILE "Peter Brцtzmann - Pica Pica (1982)\Peter Brцtzmann - 03 - Pica Pica.wav" WAVE
TRACK 03 AUDIO
TITLE "Pica Pica"
PERFORMER "Peter Brцtzmann"
INDEX 01 00:00:00
 
Лог проверки качества
AUDIOCHECKER v2.0 beta (build 457) - by Dester - opdester@freemail.hu
~~~~~~~~~~~~~~~~~~~~~~~~~~~~~~~~~~
-=== DO NOT EDIT THIS FILE! ===-
Path: ...\Peter Brotzmann - Pica Pica (1982)
1 -=- Peter Brotzmann - 01 - Instant Tears.flac -=- CDDA (100%)
2 -=- Peter Brotzmann - 02 - Wie Du Mir, So Ich Dir Noch Lange Night.flac -=- CDDA (100%)
3 -=- Peter Brotzmann - 03 - Pica Pica.flac -=- CDDA (100%)
Summary 100,00% CDDA
221969604
 
Состав
Peter Brötzmann - alto, tenor & baritone saxophone, tarogato;
Albert Mangelsdorff - trombone;
Günter Sommer - drums, percussion, horn
Any questions -> support@pro-jazz.com. По всем вопросам пишите -> support@pro-jazz.com
07:38
273
Нет комментариев. Ваш будет первым!