Вы используете незарегистрированную версию компонента "Вкладки"!

Поиск

(Free Jazz, Free Improvisation) Paul Dunmall, Trevor Taylor, Paul Rogers - Zoochosis - 2006, FLAC (image+.cue), lossless

(Free Jazz, Free Improvisation) Paul Dunmall, Trevor Taylor, Paul Rogers - Zoochosis - 2006, FLAC (image+.cue), lossless
Треклист:
Paul Dunmall, Trevor Taylor, Paul Rogers / Zoochosis
Жанр: Free Jazz, Free Improvisation
Страна-производитель диска: UK
Год издания: 2006
Издатель (лейбл): FMR Records
Номер по каталогу: FMRCD189-i0106
Аудиокодек: FLAC (*.flac)
Тип рипа: image+.cue
Битрейт аудио: lossless
Продолжительность: 61:22
Источник (релизер): cd
Наличие сканов в содержимом раздачи: нет
Треклист:
1 Bears 16:18
2 Birds 15:09
3 Monkeys 5:14
4 Big Cats 3:50
5 Whales And Elephants 10:48
 
Лог создания рипа
Exact Audio Copy V1.0 beta 2 from 29. April 2011
EAC extraction logfile from 2. November 2012, 14:20
Paul Dunmall, Paul Rogers, Mark Sanders / Deep Whole
Used drive : Optiarc DVD RW AD-7170A Adapter: 0 ID: 0
Read mode : Secure
Utilize accurate stream : Yes
Defeat audio cache : Yes
Make use of C2 pointers : No
Read offset correction : 48
Overread into Lead-In and Lead-Out : No
Fill up missing offset samples with silence : Yes
Delete leading and trailing silent blocks : No
Null samples used in CRC calculations : Yes
Used interface : Native Win32 interface for Win NT & 2000
Used output format : User Defined Encoder
Selected bitrate : 320 kBit/s
Quality : High
Add ID3 tag : No
Command line compressor : C:\Program Files\Exact Audio Copy\Flac\flac.exe
Additional command line options : -V -8 -T "Date=%year%" -T "Genre=%genre%" %source%
TOC of the extracted CD
Track | Start | Length | Start sector | End sector
---------------------------------------------------------
1 | 0:00.00 | 16:58.45 | 0 | 76394
2 | 16:58.45 | 26:18.46 | 76395 | 194790
3 | 43:17.16 | 18:05.44 | 194791 | 276209
Range status and errors
Selected range
Filename K:\ЕАС\Paul Dunmall, Paul Rogers, Mark Sanders - Deep Whole.wav
Peak level 98.8 %
Extraction speed 1.2 X
Range quality 99.9 %
Test CRC 9E6D40EB
Copy CRC 9E6D40EB
Copy OK
No errors occurred
AccurateRip summary
Track 1 accurately ripped (confidence 2) [C0028BD9] (AR v1)
Track 2 accurately ripped (confidence 2) [38982360] (AR v1)
Track 3 accurately ripped (confidence 2) [74CC8EE5] (AR v1)
All tracks accurately ripped
End of status report
==== Log checksum 98498473D7C716459A511177C6185F3F8D3D8A33EDD1F5BCB0F99A388B3D33BE ====
 
Содержание индексной карты (.CUE)
REM GENRE Jazz
REM DATE 2006
REM DISCID 1E0E6203
REM COMMENT "ExactAudioCopy v1.0b2"
PERFORMER "Paul Dunmall, Paul Rogers, Mark Sanders"
TITLE "Deep Whole"
FILE "Paul Dunmall, Paul Rogers, Mark Sanders - Deep Whole.flac" WAVE
TRACK 01 AUDIO
TITLE "Deep Whole"
PERFORMER "Paul Dunmall, Paul Rogers, Mark Sanders"
ISRC 000000000000
FLAGS DCP
INDEX 01 00:00:00
TRACK 02 AUDIO
TITLE "Wholeness"
PERFORMER "Paul Dunmall, Paul Rogers, Mark Sanders"
ISRC 000000000000
FLAGS DCP
INDEX 01 16:58:45
TRACK 03 AUDIO
TITLE "Emptiness"
PERFORMER "Paul Dunmall, Paul Rogers, Mark Sanders"
ISRC 000000000000
FLAGS DCP
INDEX 01 43:17:16
Доп. информация: Recorded at the Studio of the University of West England, Bristol, United Kingdom
 
Состав
Double Bass [7 String A.l.l.] – Paul Rogers
Percussion, Electronics – Trevor Taylor
Saxophone [Saxophones] – Paul Dunmall
Any questions -> support@pro-jazz.com. По всем вопросам пишите -> support@pro-jazz.com
05:06
159
Нет комментариев. Ваш будет первым!