Вы используете незарегистрированную версию компонента "Вкладки"!

Поиск

(Free Jazz, Free Improvisation) Paal Nilssen-Love - Miro (Miró) (2008) {PNL Records PNL007, Norway} 2010(FLAC) Scans, FLAC (tracks+.cue) lossless

Треклист:
Paal Nilssen-Love - Miró
Жанр: Free Jazz, Free Improvisation
Страна-производитель диска: Norway
Год издания диска: 2010
Издатель (лейбл): PNL Records
Номер по каталогу: PNL007
Аудио кодек: FLAC (*.flac)
Тип рипа: tracks+.cue
Битрейт аудио: lossless
Продолжительность: 01:05:08
Источник (релизер): mishka1981
Наличие сканов в содержимом раздачи: да
Треклист:
1 - Part I
2 - Part II
3 - Part III
4 - Part IV
5 - Part V
6 - Part VI
Recorded live on the 24th of July 2008 at Foundació Joan Miró, Barcelona Spain, during The Annual Concert Series "Nits de Musica".
Personnel:
Paal Nilssen-Love - Drums & Percussion
 
Лог создания рипа (EAC Log)
Exact Audio Copy V1.0 beta 1 from 15. November 2010
EAC extraction logfile from 1. November 2011, 15:19
Paal Nilssen-Love / MIRO
Used drive : TSSTcorpCDDVDW TS-L633A Adapter: 3 ID: 0
Read mode : Secure
Utilize accurate stream : Yes
Defeat audio cache : Yes
Make use of C2 pointers : No
Read offset correction : 6
Overread into Lead-In and Lead-Out : No
Fill up missing offset samples with silence : Yes
Delete leading and trailing silent blocks : No
Null samples used in CRC calculations : Yes
Used interface : Installed external ASPI interface
Gap handling : Appended to previous track
Used output format : User Defined Encoder
Selected bitrate : 896 kBit/s
Quality : High
Add ID3 tag : No
Command line compressor : C:\Program Files\Exact Audio Copy\FLAC\FLAC.EXE
Additional command line options : -8 -V -T "ARTIST=%a" -T "TITLE=%t" -T "ALBUM=%g" -T "DATE=%y" -T "TRACKNUMBER=%n" -T "TOTALTRACKS=%x" -T "GENRE=%m" -T "ALBUMARTIST=%v" -T "ALBUM ARTIST=%v" -T "COMMENT=EAC Secure Mode, Test & Copy, AccurateRip, FLAC -8" %s
TOC of the extracted CD
Track | Start | Length | Start sector | End sector
---------------------------------------------------------
1 | 0:00.00 | 20:16.43 | 0 | 91242
2 | 20:16.43 | 8:11.10 | 91243 | 128077
3 | 28:27.53 | 7:16.07 | 128078 | 160784
4 | 35:43.60 | 16:51.23 | 160785 | 236632
5 | 52:35.08 | 5:51.46 | 236633 | 263003
6 | 58:26.54 | 6:42.20 | 263004 | 293173
Track 1
Filename C:\MY RIPS\01 - Part I.wav
Pre-gap length 0:00:02.00
Peak level 98.8 %
Extraction speed 1.4 X
Track quality 100.0 %
Test CRC 1E264755
Copy CRC 1E264755
Track not present in AccurateRip database
Copy OK
Track 2
Filename C:\MY RIPS\02 - Part II.wav
Peak level 98.8 %
Extraction speed 1.5 X
Track quality 99.9 %
Test CRC E483279E
Copy CRC E483279E
Track not present in AccurateRip database
Copy OK
Track 3
Filename C:\MY RIPS\03 - Part III.wav
Peak level 98.8 %
Extraction speed 1.8 X
Track quality 100.0 %
Test CRC 7D9EE448
Copy CRC 7D9EE448
Track not present in AccurateRip database
Copy OK
Track 4
Filename C:\MY RIPS\04 - Part IV.wav
Peak level 98.8 %
Extraction speed 2.2 X
Track quality 100.0 %
Test CRC 4405C386
Copy CRC 4405C386
Track not present in AccurateRip database
Copy OK
Track 5
Filename C:\MY RIPS\05 - Part V.wav
Peak level 98.8 %
Extraction speed 2.2 X
Track quality 100.0 %
Test CRC 6B362C16
Copy CRC 6B362C16
Track not present in AccurateRip database
Copy OK
Track 6
Filename C:\MY RIPS\06 - Part VI.wav
Peak level 98.8 %
Extraction speed 2.3 X
Track quality 100.0 %
Test CRC DA5A675F
Copy CRC DA5A675F
Track not present in AccurateRip database
Copy OK
None of the tracks are present in the AccurateRip database
No errors occurred
End of status report
==== Log checksum C922404CB383897906485436CDB70BC13E7ECB04B2077E32EF0D3AC4F76E4D05 ====
 
Содержание индексной карты (.CUE)
REM GENRE "Free Improvisation"
REM DATE 2010
REM DISCID 4B0F4406
REM COMMENT "ExactAudioCopy v1.0b1"
PERFORMER "Paal Nilssen-Love"
TITLE "MIRO"
FILE "01 - Part I.wav" WAVE
TRACK 01 AUDIO
TITLE "Part I"
PERFORMER "Paal Nilssen-Love"
INDEX 01 00:00:00
FILE "02 - Part II.wav" WAVE
TRACK 02 AUDIO
TITLE "Part II"
PERFORMER "Paal Nilssen-Love"
INDEX 01 00:00:00
FILE "03 - Part III.wav" WAVE
TRACK 03 AUDIO
TITLE "Part III"
PERFORMER "Paal Nilssen-Love"
INDEX 01 00:00:00
FILE "04 - Part IV.wav" WAVE
TRACK 04 AUDIO
TITLE "Part IV"
PERFORMER "Paal Nilssen-Love"
INDEX 01 00:00:00
FILE "05 - Part V.wav" WAVE
TRACK 05 AUDIO
TITLE "Part V"
PERFORMER "Paal Nilssen-Love"
INDEX 01 00:00:00
FILE "06 - Part VI.wav" WAVE
TRACK 06 AUDIO
TITLE "Part VI"
PERFORMER "Paal Nilssen-Love"
INDEX 01 00:00:00
 
Biography
Paal was born in Molde, Norway, Dec 24. 1974, and raised at a jazz club in Stavanger, run by his parents. It was natural to choose his fathers drums as his instrument and jazz as his work. From 1990 on he took actively part in the jazz milieu in Stavanger and joined bands with established musicians such as trumpeter Didrik Ingvaldsen and saxophonist Frode Gjerstad. In many ways, these collaborations were essential as they pointed out the directions for Paal’s later musical development and career. During his studies at the Jazz dept at the University in Trondheim, where the first self initiated bands were established, things developed really fast – and Paal was nationally acknowledged at the age of 20.
The forming of the quartet Element in 1993 in many ways represented the start of a new phase in Paal’s musical life. Element musically became a platform for several other groups with bassist Flaten and pianist Wiik, and lead to collaborations with Iain Ballamy and Chris Potter, amongst others. Paal moved to Oslo in 1996, where he joined and/or took part in the forming of bands like Vindaloo, SAN, Håkon Kornstad Tio, The Quintet and Frode Gjerstad Trio. He later on got more into self initiated projects and collaborations with Swedish musicians, such as pianist Sten Sandell and saxophonist Mats Gustafsson.
Paal played his first solo concert in 1999, and since then the solo concept has been an important part of his work: “Everyone should try doing some solo work, just to feel who you really are and what gets you going”. His solo album “Sticks and stones” was put out in 2001 on SOFA Rec.
Being active in several bands at the same time has always been Paal’s deliberate working method. He is constantly conscious about the projects he is in, as his participation in each and one of them is fully dedicated. Playing is not about getting from start to goal, but rather being in an everlasting process, a continuous movement where each new piece of music performed is a prolongation of the latest. Hence, keeping focused and concentrating all energy around what’s happening there and then is of greatest importance - as is the freedom in the music, the ability of being free within the expression.
All bands, although various styles and musical versatility in general, represent important pieces that make up a total, and all bands are formed or joined with a clear vision. Today Paal’s portfolio includes Atomic, School Days, The Thing, Frode Gjerstad Trio, Sten Sandell Trio, Scorch Trio, Territory Band, FME, and various duo projects such as with reedmen Ken Vandermark, John Butcher, Mats Gustafsson, organist Nils Henrik Asheim and noise wizard Lasse Marhaug. And not to forget the recently joined Peter Brötzmann Chicago Tentet.
Before turning 30 Paal has stated his position as one of the most profiled drummers in Europe today, he has made numberless performances at festivals and clubs in Europe and USA and participated on more than 50 recordings. He runs his own annual festival – All Ears - for improvised music in Oslo, which is an important part of his musical life, and he plans to start his own recording label for vinyl productions. Like Pat Metheny put it in 2002, after having played with Paal at Molde International Jazz festival: “He is simply one of the best new musicians I’ve heard during the latest years!” And after having heard Paal in 9 different settings at the same festival, Down Beat reporter Dan Quelette stated: “His week at Molde proved a revelation: Nilssen-Love is one of the most innovative, dynamic and versatile drummers in jazz!”
Source - http://www.paalnilssen-love.com/biography.php
По всем вопросам пишите личное сообщение пользователю M0p94ok.
18:07
148
Нет комментариев. Ваш будет первым!