Вы используете незарегистрированную версию компонента "Вкладки"!

Поиск

(Free Jazz, Free Improvisation, NotTwo Records) [CD] Gerard Lebik / Artur Majewski Foton Quartet - Zomo Hall - 2010, FLAC (tracks+.cue), lossless

(Free Jazz, Free Improvisation, NotTwo Records) [CD] Gerard Lebik / Artur Majewski Foton Quartet - Zomo Hall - 2010, FLAC (tracks+.cue), lossless
Треклист:
Gerard Lebik / Artur Majewski Foton Quartet – Zomo Hall
Жанр: Free Jazz, Free Improvisation, NotTwo Records
Носитель: CD
Страна-производитель диска: Poland
Год издания: 2010
Издатель (лейбл): NotTwo Records
Номер по каталогу: MW 847-2
Аудиокодек: FLAC (*.flac)
Тип рипа: tracks+.cue
Битрейт аудио: lossless
Продолжительность: 59:19
Источник (релизер): я
Наличие сканов в содержимом раздачи: да
Треклист:
1. Track 1 (13:22)
2. Track 2 (6:29)
3. Track 3 (11:06)
4. Track 4 (10:51)
5. Track 5 (15:06)
6. Track 6 (2:26)
All music by Lebik / Majewski / Cywiński / Romanowski.
Recorded on August the 11th 2007 (tracks 1 and 3) and July the 23rd 2008 (tracks 2, 4, 5, 6) by Artur Majewski.
Gerard Lebik – Tenor sax, Contra Alto Clarinet
Artur Majewski – Trumpet
Jakub Cywiński – Bass
Wojciech Romanoswski – Drums
 
Лог создания рипа
Exact Audio Copy V1.0 beta 3 from 29. August 2011
EAC extraction logfile from 26. May 2014, 19:50
Gerard Lebik / Artur Majewski Foton Quartet / Zomo Hall
Used drive : SlimtypeeNAU508 5 Adapter: 1 ID: 0
Read mode : Secure
Utilize accurate stream : Yes
Defeat audio cache : Yes
Make use of C2 pointers : No
Read offset correction : 6
Overread into Lead-In and Lead-Out : No
Fill up missing offset samples with silence : Yes
Delete leading and trailing silent blocks : No
Null samples used in CRC calculations : Yes
Used interface : Native Win32 interface for Win NT & 2000
Gap handling : Appended to previous track
Used output format : User Defined Encoder
Selected bitrate : 768 kBit/s
Quality : High
Add ID3 tag : No
Command line compressor : C:\Program Files (x86)\Exact Audio Copy\Flac\flac.exe
Additional command line options : -8 -V -T "ARTIST=%artist%" -T "TITLE=%title%" -T "ALBUM=%albumtitle%" -T "DATE=%year%" -T "TRACKNUMBER=%tracknr%" -T "TOTALTRACKS=%numtracks%" -T "GENRE=%genre%" -T "ALBUMARTIST=%albumartist%" -T "ALBUM ARTIST=%albumartist%" -T "COMMENT=EAC Secure Mode, Test & Copy, AccurateRip, FLAC -8" %source%
TOC of the extracted CD
Track | Start | Length | Start sector | End sector
---------------------------------------------------------
1 | 0:00.00 | 13:21.48 | 0 | 60122
2 | 13:21.48 | 6:29.28 | 60123 | 89325
3 | 19:51.01 | 11:05.52 | 89326 | 139252
4 | 30:56.53 | 10:51.00 | 139253 | 188077
5 | 41:47.53 | 15:05.48 | 188078 | 256000
6 | 56:53.26 | 2:25.44 | 256001 | 266919
Track 1
Filename C:\EAC rips\01 - Track 1.wav
Pre-gap length 0:00:02.00
Peak level 100.0 %
Extraction speed 2.6 X
Track quality 100.0 %
Test CRC 1C38B95A
Copy CRC 1C38B95A
Accurately ripped (confidence 1) [DAC6BCAA] (AR v2)
Copy OK
Track 2
Filename C:\EAC rips\02 - Track 2.wav
Pre-gap length 0:00:02.02
Peak level 91.7 %
Extraction speed 3.0 X
Track quality 100.0 %
Test CRC 3877CC2D
Copy CRC 3877CC2D
Accurately ripped (confidence 1) [BCB2E34C] (AR v2)
Copy OK
Track 3
Filename C:\EAC rips\03 - Track 3.wav
Pre-gap length 0:00:02.70
Peak level 100.0 %
Extraction speed 3.5 X
Track quality 100.0 %
Test CRC 4BC236ED
Copy CRC 4BC236ED
Accurately ripped (confidence 1) [DA7F96E6] (AR v2)
Copy OK
Track 4
Filename C:\EAC rips\04 - Track 4.wav
Pre-gap length 0:00:04.03
Peak level 100.0 %
Extraction speed 3.9 X
Track quality 100.0 %
Test CRC E92431D3
Copy CRC E92431D3
Accurately ripped (confidence 1) [ADDC7D90] (AR v2)
Copy OK
Track 5
Filename C:\EAC rips\05 - Track 5.wav
Pre-gap length 0:00:00.04
Peak level 94.4 %
Extraction speed 4.4 X
Track quality 100.0 %
Test CRC 0ED8B855
Copy CRC 0ED8B855
Accurately ripped (confidence 1) [A387AFDF] (AR v2)
Copy OK
Track 6
Filename C:\EAC rips\06 - Track 6.wav
Pre-gap length 0:00:01.26
Peak level 67.0 %
Extraction speed 3.9 X
Track quality 100.0 %
Test CRC 32CA9912
Copy CRC 32CA9912
Accurately ripped (confidence 1) [BD5B69E4] (AR v2)
Copy OK
All tracks accurately ripped
No errors occurred
End of status report
---- CUETools DB Plugin V2.1.4
[CTDB TOCID: i38rgXG2xTcLlXDW2DEa0B_hLrs-] disk not present in database
Submit result: i38rgXG2xTcLlXDW2DEa0B_hLrs- has been uploaded
==== Log checksum 6B9FE5A858B69324A5F036059C497534D08181E8D418B990331E0BDF1ACAAB73 ====
 
Содержание индексной карты (.CUE)
REM GENRE Jazz
REM DATE 2010
REM DISCID 4E0DE606
REM COMMENT "ExactAudioCopy v1.0b3"
PERFORMER "Gerard Lebik / Artur Majewski Foton Quartet"
TITLE "Zomo Hall"
FILE "01 - Track 1.wav" WAVE
TRACK 01 AUDIO
TITLE "Track 1"
PERFORMER "Gerard Lebik / Artur Majewski Foton Quartet"
INDEX 01 00:00:00
TRACK 02 AUDIO
TITLE "Track 2"
PERFORMER "Gerard Lebik / Artur Majewski Foton Quartet"
INDEX 00 13:19:46
FILE "02 - Track 2.wav" WAVE
INDEX 01 00:00:00
TRACK 03 AUDIO
TITLE "Track 3"
PERFORMER "Gerard Lebik / Artur Majewski Foton Quartet"
INDEX 00 06:26:33
FILE "03 - Track 3.wav" WAVE
INDEX 01 00:00:00
TRACK 04 AUDIO
TITLE "Track 4"
PERFORMER "Gerard Lebik / Artur Majewski Foton Quartet"
INDEX 00 11:01:49
FILE "04 - Track 4.wav" WAVE
INDEX 01 00:00:00
TRACK 05 AUDIO
TITLE "Track 5"
PERFORMER "Gerard Lebik / Artur Majewski Foton Quartet"
INDEX 00 10:50:71
FILE "05 - Track 5.wav" WAVE
INDEX 01 00:00:00
TRACK 06 AUDIO
TITLE "Track 6"
PERFORMER "Gerard Lebik / Artur Majewski Foton Quartet"
INDEX 00 15:04:22
FILE "06 - Track 6.wav" WAVE
INDEX 01 00:00:00
По всем вопросам пишите личное сообщение пользователю M0p94ok.
02:28
184
Нет комментариев. Ваш будет первым!